<?xml version="1.0" standalone="no"?>
<!DOCTYPE svg PUBLIC "-//W3C//DTD SVG 1.1//EN" "http://www.w3.org/Graphics/SVG/1.1/DTD/svg11.dtd" >
<svg xmlns="http://www.w3.org/2000/svg">
<metadata>Generated by IcoMoon</metadata>
<defs>
<font id="icomoon" horiz-adv-x="1024">
<font-face units-per-em="1024" ascent="896" descent="-128" />
<missing-glyph horiz-adv-x="1024" />
<glyph unicode="&#x20;" d="" />
<glyph unicode="&#x1005;" glyph-name="ok-circle" d="M516.152-63.152c-60.696 0-119.595 11.895-175.057 35.353-53.555 22.652-101.646 55.073-142.936 96.365-41.291 41.291-73.713 89.382-96.364 142.936-23.458 55.462-35.353 114.36-35.353 175.056s11.895 119.595 35.353 175.057c22.652 53.555 55.073 101.646 96.364 142.936 41.29 41.291 89.382 73.713 142.936 96.364 55.462 23.458 114.36 35.353 175.057 35.353s119.595-11.895 175.057-35.353c53.555-22.652 101.645-55.073 142.936-96.364s73.712-89.381 96.364-142.936c23.459-55.462 35.353-114.36 35.353-175.057s-11.894-119.594-35.353-175.056c-22.652-53.555-55.072-101.645-96.364-142.936s-89.382-73.713-142.936-96.365c-55.461-23.458-114.36-35.353-175.057-35.353zM516.152 774.87c-214.116 0-388.312-174.196-388.312-388.312s174.196-388.312 388.312-388.312 388.312 174.196 388.312 388.312-174.195 388.312-388.312 388.312zM434.749 132.831l-225.256 225.257 79.595 79.594 145.661-145.661 308.47 308.468 79.594-79.595z" />
<glyph unicode="&#x1006;" glyph-name="close1" d="M783.483 701.249l-271.483-271.474-271.483 271.474c-10.082 10.083-26.429 10.083-36.51 0-10.083-10.082-10.083-26.429 0-36.509l271.481-271.475-271.48-271.477c-10.083-10.081-10.083-26.428 0-36.508 10.082-10.082 26.429-10.082 36.51 0l271.482 271.475 271.483-271.475c10.082-10.082 26.429-10.082 36.513 0 10.081 10.083 10.081 26.428 0 36.508l-271.486 271.477 271.485 271.474c10.081 10.083 10.081 26.429 0 36.509-10.083 10.082-26.431 10.082-36.512 0.001z" />
<glyph unicode="&#x1007;" glyph-name="close-fill" d="M512 822.022c-217.475 0-394.423-176.949-394.423-394.423s176.948-394.422 394.423-394.422c217.473 0 394.422 176.948 394.422 394.422s-176.949 394.423-394.422 394.423zM702.229 270.93c8.031-8.031 8.031-21.052 0-29.083s-21.052-8.031-29.083 0l-161.145 161.146-161.146-161.145c-8.031-8.031-21.052-8.031-29.083 0s-8.031 21.052 0 29.083l161.146 161.146-161.145 161.145c-8.031 8.031-8.031 21.052 0 29.083s21.052 8.031 29.083 0l161.146-161.146 161.144 161.146c8.031 8.031 21.052 8.031 29.083 0s8.031-21.052 0-29.083l-161.146-161.146 161.146-161.146z" />
<glyph unicode="&#xe600;" glyph-name="jian1" d="M512.135 776.711c-216.356 0-392.38-176.025-392.38-392.38s176.025-392.38 392.38-392.38c216.356 0 392.381 176.024 392.381 392.38s-176.026 392.38-392.381 392.38zM512.135 40.996c-189.317 0-343.333 154.017-343.333 343.335s154.016 343.333 343.333 343.333c189.318 0 343.333-154.016 343.333-343.333 0-189.319-154.016-343.335-343.333-343.335zM659.278 408.854h-294.285c-13.556 0-24.524-10.968-24.524-24.523 0-13.531 10.968-24.524 24.524-24.524h294.285c13.556 0 24.524 10.993 24.524 24.524 0 13.555-10.968 24.523-24.524 24.523z" />
<glyph unicode="&#xe601;" glyph-name="jia1" d="M511.515 775.812c-215.609 0-391.030-175.421-391.030-391.031s175.421-391.031 391.031-391.031c215.611 0 391.031 175.42 391.031 391.031s-175.42 391.031-391.032 391.031zM511.515 42.63c-188.665 0-342.151 153.484-342.151 342.151s153.486 342.152 342.151 342.152c188.666 0 342.153-153.486 342.153-342.152s-153.487-342.151-342.153-342.151zM658.152 409.221h-122.196v122.197c0 13.508-10.931 24.439-24.44 24.439s-24.439-10.931-24.439-24.439v-122.197h-122.196c-13.511 0-24.44-10.931-24.44-24.439 0-13.484 10.931-24.439 24.44-24.439h122.195v-122.197c0-13.484 10.931-24.439 24.439-24.439 13.51 0 24.44 10.955 24.44 24.439v122.197h122.196c13.51 0 24.44 10.955 24.44 24.439 0.001 13.509-10.93 24.44-24.439 24.44z" />
<glyph unicode="&#xe602;" glyph-name="bianji" d="M468.551 64.961l402.683 477.563c25.851 30.583 21.845 76.822-8.738 102.551l-148.306 125.247c-30.583 25.851-76.822 21.845-102.551-8.738l-402.804-477.563-23.301-254.62c-0.85-9.345 2.913-18.569 10.073-24.637s16.869-8.253 25.972-5.825l246.974 66.021zM582.512 636.825l170.757-143.937-291.635-345.885-170.757 144.058 291.635 345.763zM676.569 725.783l148.427-125.125c6.068-5.098 6.796-14.442 1.699-20.511l-36.166-42.962-170.636 143.937 36.166 42.962c5.098 6.068 14.563 6.796 20.511 1.699zM246.701 65.447l15.899 173.185 152.189-128.281-168.087-44.905z" />
<glyph unicode="&#xe603;" glyph-name="yonghu" d="M701.812 584.689c0-99.168-80.394-179.563-179.568-179.563-99.164 0-179.556 80.39-179.556 179.563 0 99.168 80.395 179.564 179.556 179.564 99.174 0 179.568-80.39 179.568-179.564zM780.721 159.555c0-123.196-115.728-140.102-258.479-140.102-142.74 0-258.468 16.894-258.468 140.094 0 123.192 115.726 223.067 258.479 223.067 142.749 0.003 258.468-99.869 258.468-223.056z" />
<glyph unicode="&#xe606;" glyph-name="shijian" d="M512 839.111c-250.311 0-455.111-204.8-455.111-455.111s204.8-455.111 455.111-455.111 455.111 204.8 455.111 455.111-204.8 455.111-455.111 455.111M512-14.222c-221.867 0-398.222 176.355-398.222 398.222s176.355 398.222 398.222 398.222 398.222-176.355 398.222-398.222-176.355-398.222-398.222-398.222M512 384v284.444h-56.889v-341.333h284.445v56.889z" />
<glyph unicode="&#xe607;" glyph-name="fuxuankuang-banxuan" d="M229.8 5.4c-50 0-90.7 40.7-90.7 90.7v284.3l752.9 1.5v-285.8c0-50-40.7-90.7-90.7-90.7h-571.5zM781.438-6h-535.875c-66.188 0-120.094 53.906-120.094 120.094v535.875c0 66.188 53.906 120.094 120.094 120.094h535.781c66.188 0 120.094-53.906 120.094-120.094v-535.875c0.094-66.188-53.813-120.094-120-120.094zM245.563 699.937c-27.563 0-49.969-22.406-49.969-49.969v-535.875c0-27.563 22.406-49.969 49.969-49.969h535.781c27.563 0 49.969 22.406 49.969 49.969v535.875c0 27.563-22.406 49.969-49.969 49.969h-535.781zM245.563 699.937" />
<glyph unicode="&#xe608;" glyph-name="star" d="M749.625-84.153c-15.673 0-31.246 3.883-45.084 11.307l-192.526 103.637-192.469-103.609c-31.204-16.64-70.315-14.393-99.044 5.305-29.511 20.338-44.743 55.922-38.841 90.695l37.703 225.252-162.702 162.475c-25.003 24.889-33.465 60.985-22.059 94.194 11.349 32.91 40.064 56.576 74.965 61.753l221.326 32.896 96.128 199.58c15.488 32.085 48.853 52.807 84.992 52.807 36.167 0 69.518-20.736 84.964-52.807l96.156-199.58 221.298-32.91c34.873-5.163 63.616-28.8 74.98-61.696 11.392-33.28 2.944-69.362-22.030-94.251l-162.759-162.46 37.746-225.28c5.845-34.773-9.387-70.357-38.812-90.638-15.986-10.908-34.617-16.668-53.931-16.668zM512.014 91.548c4.636 0 9.273-1.138 13.483-3.385l205.938-110.862c12.373-6.642 28.316-5.803 39.936 2.133 11.392 7.836 17.124 21.006 14.891 34.304l-40.164 239.758c-1.508 9.088 1.451 18.332 7.964 24.832l173.141 172.843c9.458 9.429 12.686 23.026 8.405 35.484-4.38 12.672-15.701 21.874-29.525 23.922l-236.217 35.129c-9.316 1.38-17.365 7.296-21.447 15.787l-102.699 213.148c-6.030 12.53-19.257 20.608-33.707 20.608s-27.691-8.092-33.764-20.622l-102.642-213.134c-4.082-8.491-12.132-14.407-21.447-15.787l-236.231-35.129c-13.625-2.034-25.202-11.435-29.54-23.993-4.267-12.416-1.024-25.984 8.434-35.399l173.113-172.857c6.514-6.5 9.472-15.744 7.964-24.832l-40.135-239.744c-2.247-13.312 3.484-26.439 14.976-34.361 11.435-7.836 27.349-8.775 39.95-2.062l205.852 110.834c4.196 2.247 8.832 3.385 13.468 3.385zM200.32 439.211c-6.841 0-12.885 4.964-14.023 11.947-1.252 7.751 4.011 15.061 11.762 16.313l9.444 1.536c7.794 1.337 15.061-4.011 16.313-11.762s-4.011-15.061-11.762-16.313l-9.444-1.536c-0.754-0.128-1.536-0.185-2.29-0.185zM252.544 447.687c-6.684 0-12.644 4.722-13.938 11.534-1.493 7.708 3.556 15.175 11.264 16.654l153.927 29.696 58.055 133.148c3.157 7.182 11.548 10.496 18.716 7.353 7.211-3.143 10.51-11.52 7.367-18.716l-61.056-140.018c-1.877-4.295-5.746-7.396-10.354-8.277l-161.28-31.118c-0.91-0.185-1.806-0.256-2.702-0.256z" />
<glyph unicode="&#xe60c;" glyph-name="normal-file" d="M192 800v-832h640v620.992l-8.992 10.016-192 192-10.016 8.992h-428.992zM256 736h320v-192h192v-512h-512v704zM640 689.984l82.016-81.984h-82.016v82.016z" />
<glyph unicode="&#xe60e;" glyph-name="wenjianjiazhankai" d="M333.206 491.863h504.3v56.012c-0.012 61.888-50.179 112.055-112.066 112.067h-224.113c0 61.893-50.174 112.067-112.067 112.067v0h-224.133c-61.888-0.012-112.055-50.179-112.067-112.066v-560.313c0-14.289 2.964-27.837 7.832-40.39l160.246 320.535c36.685 55.779 50.191 112.088 112.067 112.088zM893.539 435.83h-504.279c-61.897 0-75.424-56.309-112.067-112.067l-168.121-280.145c0-61.897 50.191-56.033 112.067-56.033h504.3c61.876 0 75.403-11.96 112.067 56.033l168.079 280.145c0 0.006 0 0.014 0 0.021 0 61.881-50.164 112.045-112.045 112.045v0z" />
<glyph unicode="&#xe60f;" glyph-name="xiangmuxiaoxi" horiz-adv-x="1152" d="M578.575 733.268l-3.164 1.919c6.997-9.237 6.804-5.094 3.164-1.919v0zM177.111 329.683l358.478-161.157c31.662-14.924 45.32-14.924 79.641 0l358.479 161.158c17.676 8.218 24.14 47.012 24.14 67.918-23.022-11.541-55.653-27.978-56.318-28.158l-366.12-168.771-366.123 168.771c1.239-0.787-32.389 14.441-56.317 28.158 0-20.425 5.136-57.829 24.14-67.92v0zM575.411 31.842l-366.123 168.829c1.239-0.786-32.389 14.442-56.317 28.099 0-20.424 5.136-57.828 24.14-67.92l358.478-161.094c31.662-14.985 45.32-14.985 79.641 0l358.479 161.096c17.676 8.278 24.14 47.074 24.14 67.92-23.022-11.48-55.653-27.975-56.318-28.099l-366.12-168.831zM177.111 498.453l358.478-161.157c31.662-14.925 45.32-14.925 79.641 0l358.479 161.157c26.376 12.327 27.284 64.656 0 79.581l-358.478 189.27c-28.158 16.708-47.979 15.831-79.641 0l-358.479-189.27c-27.283-17.584-28.158-64.656 0-79.581v0zM575.411 735.187c0.374-0.122 0.702-0.314 0.97-0.522l365.152-196.392-366.122-154.329-366.123 154.328 366.123 196.915z" />
<glyph unicode="&#xe615;" glyph-name="search2" d="M439.323 120.522c-49.28 0-97.098 9.657-142.127 28.7-43.48 18.389-82.523 44.706-116.044 78.226s-59.841 72.561-78.231 116.039c-19.043 45.028-28.7 92.845-28.7 142.123 0 49.284 9.656 97.105 28.7 142.133 18.389 43.479 44.71 82.52 78.232 116.039 33.519 33.515 72.563 59.833 116.044 78.219 45.027 19.040 92.846 28.695 142.126 28.695s97.099-9.654 142.127-28.695c43.481-18.386 82.526-44.704 116.045-78.221 33.521-33.518 59.842-72.56 78.231-116.039 19.042-45.029 28.7-92.849 28.7-142.133 0-49.278-9.657-97.095-28.702-142.123-18.389-43.477-44.708-82.52-78.229-116.039s-72.564-59.839-116.044-78.227c-45.028-19.043-92.847-28.698-142.128-28.698zM439.323 797.483c-171.976 0-311.888-139.906-311.888-311.875s139.912-311.874 311.888-311.874 311.888 139.907 311.888 311.874-139.912 311.875-311.888 311.875zM890.678-48.735c-22.122 0-42.904 8.562-58.542 24.115l-157.464 152.645 37.039 38.206 157.888-153.059c5.607-5.607 13.092-8.693 21.078-8.693 7.983 0 15.465 3.087 21.071 8.691 5.616 5.622 8.716 13.127 8.716 21.123 0 7.981-3.092 15.463-8.703 21.068l-0.302 0.307-152.746 157.563 38.208 37.035 152.612-157.427c15.571-15.638 24.145-36.423 24.145-58.549 0-22.196-8.626-43.055-24.287-58.736-15.668-15.666-36.515-24.288-58.714-24.288zM281.015 327.245c-42.34 42.321-65.653 98.584-65.644 158.421 0.008 59.818 23.319 116.075 65.638 158.408l37.635-37.62c-66.607-66.63-66.61-175.001-0.007-241.577l-37.621-37.632z" />
<glyph unicode="&#xe618;" glyph-name="weibiaoti5" horiz-adv-x="1025" d="M458.632 712.273c12.75-33.75 48.75-57 86.25-58.5 10.5 0 12 0 21.75 0h354c31.5 0 57.75-27 57.75-58.5v-523.5c0-31.5-26.25-58.5-57.75-58.5h-808.5c-31.5 0-57.75 27-57.75 58.5v640.5c0 31.5 26.25 58.5 57.75 58.5h288.75M400.882 770.023v0c27.75-1.5 50.25-35.25 57.75-58.5" />
<glyph unicode="&#xe61b;" glyph-name="layim-theme" d="M958.831 538.643l-218.171 154.111h-100.54l-3.978-9.333c-0.371-0.872-38.022-86.861-124.773-88.667-35.692 0.764-67.207 15.5-93.681 43.828-20.659 22.106-30.375 44.584-30.457 44.777l-3.955 9.394h-100.588l-218.171-154.11 104.802-158.887 89.957 65.020-19.016-368.053h542.826l-19.016 368.052 89.957-65.019 104.803 158.887zM730.105 507.204l20.655-399.781h-478.174l20.656 399.781-115.939-83.798-36.324 55.070 159.44 111.642-19.276 30.639-160.079-112.090-14.548 22.056 185.921 131.33h71.078c5.332-10.044 15.434-26.78 30.952-43.581 32.048-34.696 72.257-53.486 116.346-54.411v-0.032c0.204 0.003 0.406 0.012 0.61 0.016 0.204-0.003 0.406-0.013 0.61-0.016v0.032c44.074 0.925 84.359 19.704 116.567 54.38 15.624 16.821 25.815 33.58 31.188 43.612h71.121l185.921-131.33-14.548-22.056-160.080 112.088-19.276-30.639 159.44-111.642-36.324-55.070-115.939 83.8z" />
<glyph unicode="&#xe61e;" glyph-name="shuye1" d="M515.2 734.4c1.3 0 2.4-0.2 3.4-0.6 27-11 216.1-231.5 212.2-426.3-3.2-163.8-151.2-176.9-198.1-176.9-8.9 0-14.1 0.5-14.1 0.5s-258.5 22-220 246.2c37.2 216.1 182 357 216.6 357.1M515.2 768c-52.5 0-122.8-93.3-136.4-112-40.7-56.1-93.7-149-115.1-273.2-12.5-72.5 1.5-134.1 41.5-183.3 72.6-89.2 204.6-101.4 210.2-101.9 1-0.1 7.3-0.6 17.3-0.6 110.9 0 230.4 55.1 233.5 209.9 2.2 111.7-52.9 224.7-99.4 299.8-41.3 66.5-104.3 145.8-134.2 158-5.5 2.2-11.3 3.3-17.4 3.3zM518.6 0.4c-9.8 0-17.7 7.5-17.7 16.8v716.6c0 9.3 7.9 16.8 17.7 16.8s17.7-7.5 17.7-16.8v-716.6c0-9.3-7.9-16.8-17.7-16.8zM518.6 459.7c-5.4 0-10.7 2.3-14.2 6.8-5.8 7.5-4.2 18 3.6 23.5l130.2 92.2c7.8 5.5 18.9 4 24.7-3.5s4.2-18-3.6-23.5l-130.2-92.2c-3.1-2.2-6.8-3.3-10.5-3.3zM518.6 225.1c-5.3 0-10.5 2.2-14 6.5-6 7.3-4.6 17.9 3.1 23.6l202.9 150.5c7.7 5.7 18.8 4.4 24.8-2.9s4.6-17.9-3.1-23.6l-202.8-150.5c-3.3-2.4-7.1-3.6-10.9-3.6zM518.6 323c-4.2 0-8.5 1.4-11.9 4.4l-185.3 160.2c-7.2 6.2-7.8 16.9-1.2 23.8s17.7 7.4 25 1.2l185.4-160.2c7.2-6.2 7.8-16.9 1.2-23.8-3.6-3.7-8.4-5.6-13.2-5.6z" />
<glyph unicode="&#xe61f;" glyph-name="add-circle" d="M675.040 412.736h-127.040v127.264c0 20.064-16.288 36.32-36.32 36.32-20.064 0-36.32-16.192-36.32-36.32v-127.232h-127.072c-20.064 0-36.352-16.32-36.352-36.352 0-20.064 16.224-36.352 36.352-36.352h127.072v-127.232c0-20 16.256-36.384 36.32-36.384 20.032 0 36.32 16.256 36.32 36.384v127.136h127.040c19.968 0 36.352 16.256 36.352 36.384-0.032 20.096-16.256 36.384-36.352 36.384v0zM511.328 830.56c-250.24 0-453.952-203.616-453.952-453.952s203.712-453.952 453.952-453.952c250.336 0 453.984 203.584 453.984 453.952 0 250.336-203.616 453.952-453.984 453.952v0zM511.328-20.576c-219.040 0-397.184 178.176-397.184 397.152 0 219.104 178.144 397.216 397.184 397.216s397.216-178.112 397.216-397.216c0.032-218.944-178.176-397.152-397.216-397.152v0zM511.328-20.576" />
<glyph unicode="&#xe620;" glyph-name="xinxipilu" d="M369.647 225.683l-19.005 50.72-19.053-50.72h-50.704l41.179-31.699-18.989-57.093 47.566 34.888 47.583-34.888-19.036 57.093 41.206 31.699h-50.748zM350.643 453.792l-19.053-50.784h-50.704l41.179-31.714-18.989-57.068 47.566 34.895 47.583-34.895-19.036 57.068 41.206 31.714h-50.749l-19.004 50.784zM711.864 399.995h-207.876c-13.243 0-23.97-10.729-23.97-23.985 0-13.243 10.727-23.985 23.97-23.985h207.877c13.259 0 24.002 10.743 24.002 23.985-0.001 13.255-10.744 23.985-24.003 23.985zM767.831 767.778h-511.697c-70.645 0-127.908-57.263-127.908-127.925v-511.706c0-70.645 57.263-127.925 127.908-127.925h511.697c70.662 0 127.941 57.28 127.941 127.925v511.706c0 70.661-57.28 127.925-127.941 127.925zM516.231 719.806h163.153v-151.067l-67.988 42.786c-7.512 4.733-17.069 4.778-24.625 0.125l-70.539-43.411v151.566zM847.785 144.137c0-52.969-42.943-95.944-95.927-95.944h-479.733c-52.969 0-95.927 42.975-95.927 95.944v479.739c0 52.985 42.957 95.93 95.927 95.93h197.491v-193.277c0-8.447 4.578-16.223 11.948-20.346s16.395-3.937 23.579 0.499l93.695 57.652 91.446-57.527c3.78-2.389 8.089-3.592 12.43-3.592 3.873 0 7.745 0.968 11.258 2.904 7.42 4.108 12.040 11.931 12.040 20.41v193.277h25.846c52.984 0 95.927-42.944 95.927-95.93v-479.739zM711.864 208.099h-207.876c-13.243 0-23.97-10.711-23.97-23.985 0-13.243 10.727-23.985 23.97-23.985h207.877c13.259 0 24.002 10.743 24.002 23.985-0.001 13.275-10.744 23.985-24.003 23.985z" />
<glyph unicode="&#xe621;" glyph-name="set-sm" d="M946.367 405.895c0.020 21.85-13.040 38.49-31.74 41.57-18.69 3.070-79.050 13.010-85.99 14.14-6.95 1.15-14.090 8.070-15.4 11.45-1.32 3.37-8.94 22.2-11.87 29.46-2.95 7.27-1.92 16.58 4.39 25.52 6.3 8.93 39.9 55.87 48.38 67.72 8.49 11.87 8.65 34.61-4.84 48.39-13.48 13.78-47.75 47.090-56.73 55.86-8.99 8.76-31.080 8.64-42.67 0.43-11.58-8.2-71.69-51.010-71.69-51.010s-9.97-6.89-20.67-2.64c-10.7 4.24-33.43 14.070-33.43 14.070s-7.19 5.43-9.68 19.79c-2.5 14.37-11.11 65.28-14.070 82.7-2.97 17.42-20.67 29.62-37.83 29.46-17.16-0.14-57.91 0-74.33 0s-32.26-15.68-34.75-29.46c-2.49-13.79-11.56-69.16-14.070-84.45-2.52-15.3-11.44-18.48-11.44-18.48s-19.56-8.060-29.91-12.31c-10.34-4.26-15.39-2.64-30.35 7.48-14.95 10.11-44.74 31.030-63.040 43.83-18.3 12.81-38.12 7.92-49.26-3.52s-36.060-35.77-51.020-50.43c-14.95-14.66-12.61-37.54 0.58-55.71 13.2-18.18 32.34-45.43 41.35-58.21s10.84-19.5 8.36-26.82c-2.49-7.34-6.64-16.58-11.43-27.72-4.81-11.13-9.69-13.64-27.86-17.010-17.36-3.21-58.42-9.92-77.4-13.31-18.99-3.37-30.66-21.43-30.66-41.81v-64.66c0-24.34 13.2-37.24 38.42-41.93s62.66-10.66 74.77-12.61c12.1-1.95 17.67-6.6 21.41-15.54 3.73-8.94 5.13-10.12 9.37-22.57 4.26-12.47 6.46-15.55-4.98-31.67-11.44-16.13-34.31-48.11-46.030-64.51-11.74-16.4-6.45-37.83 4.98-49.85 11.44-12.030 35.47-35.64 48.97-48.97 13.49-13.33 35.19-16.28 53.36-3.52 18.19 12.75 54.98 38.99 65.69 46.62 10.7 7.63 21.91 5.28 27.85 2.94 5.94-2.35 11.25-4.6 22-9.1 10.73-4.48 13.85-11.2 16.41-23.45 2.57-12.24 10.19-56.85 13.93-78.59 3.75-21.72 18.91-33.43 40.62-33.72 21.7-0.29 33.27-0.12 61.57 0 28.29 0.13 41.86 12.61 45.45 31.38 3.59 18.76 12.45 72.94 14.22 83.72 1.78 10.76 5.94 14.73 13.63 18.47 7.7 3.74 14.32 6.47 26.84 11.88 12.51 5.4 18.91 0.66 27.7-5.72 8.8-6.39 47.51-33.78 63.78-45.31 16.28-11.53 36.73-10.33 51.9 4.4 15.18 14.73 31.62 30.99 49.27 48.38 17.64 17.4 12.16 39.59 4.4 51.46-7.77 11.88-44.49 62.95-49.71 70.23-5.21 7.28-4.4 18.62-1.75 24.63 2.64 6.010 8.44 18.24 11.72 25.22 3.29 6.97 9.6 11.22 18.18 12.9 8.58 1.69 62.72 11 83.75 14.61 21.030 3.64 31.11 19.92 31.26 39.92 0.15 20.020 0.070 48.61 0.090 65.98zM908.587 338.615c0.21-5.76-4.66-10.65-8.82-11.38-4.17-0.73-63.26-11.38-81.48-14.29-18.21-2.92-33.23-15.070-38.72-28.060-3.98-9.44-5.47-13.51-10.59-26.96-5.12-13.44-4.64-32.19 2.56-42.26 7.2-10.080 46.82-64.9 50.38-70.45s4.27-11.95-1.28-17.5-40.99-41.2-47.39-47.39c-6.41-6.19-11.83-4.8-18.79 0-6.95 4.8-39.61 26.39-64.44 44.36-16.96 12.28-32.82 12.43-48.7 6.020-15.87-6.42 1.28 0.28-22.2-8.97s-30.23-27.62-33.73-48.24c-3.5-20.63-10.67-62.98-11.95-70.45s-5.55-11.1-13.66-11.1h-64.9c-8.11 0-11.74 2.99-14.52 11.95-2.77 8.97-10.030 54.87-12.8 74.29-2.78 19.43-13.82 36.12-24.77 40.56-10.94 4.45-4.98 2.14-27.32 11.1-22.34 8.97-39.63 4.5-51.23-3.84-11.61-8.34-58.64-42.69-65.33-46.96-6.68-4.28-14.65-3.28-18.35 0.42s-40.56 40.56-46.54 46.54c-5.98 5.98-5.36 12.92 0 20.49 5.36 7.58 28.39 40.76 40.99 57.95 12.59 17.2 17.93 34.74 9.82 53.49-8.12 18.74-4.42 10.24-12.39 28.6-7.96 18.36-24.28 24.46-38.42 26.9-14.14 2.43-68.88 11.53-76.85 13.23-7.97 1.71-11.95 7.26-11.95 14.090v66.18c0 9.53 7.67 12.44 12.38 13.23 4.7 0.8 54.22 9.18 73 12.39 18.79 3.2 36.36 11.32 43.55 29.030 7.19 17.7 4.27 11.1 11.1 27.32 6.83 16.23 3.8 33.94-7.68 49.96-11.49 16.010-38.85 54-44.4 61.9s-5.77 12.6 0.85 19.21c6.62 6.62 42.050 42.48 46.96 46.97 4.91 4.48 12.070 5.4 18.36 0.85 6.3-4.55 49.31-35.65 64.040-46.11s32.35-12.56 49.1-5.55c16.75 7.020 10.25 4.48 26.9 11.1s24.84 19.090 28.18 39.71c3.33 20.61 11.95 74.14 12.81 77.7 0.85 3.55 5.55 10.46 11.74 10.46s65.82-0.070 69.8 0c3.99 0.070 10.3-3.29 11.32-9.18 1.020-5.9 13.020-74.29 14.94-86.25 1.92-11.95 15.58-28.57 25.54-32.73s21.35-8.75 31.31-13.090c9.97-4.34 30.13-1.91 36.15 2.28 6.030 4.18 70.52 48.81 75.43 52.37s11.52 3.27 17.64-2.85 43.34-43.19 47.54-47.53c4.19-4.34 4.66-8.66 1.14-13.66-3.53-5.010-36.72-51.8-47.54-67.46-10.81-15.65-11.73-33.73-5.41-48.96 6.33-15.22 3.99-9.39 9.11-21.91 5.13-12.53 16.28-29.030 33.59-31.88s76.92-12.74 84.82-13.95c7.9-1.21 11.1-7.18 11.1-13.37s-0.21-62.55 0-68.32zM526.833 573.195c-110.45 0-200-89.54-200-200s89.55-200 200-200c110.46 0 200 89.54 200 200s-89.54 200-200 200zM526.833 208.195c-91.12 0-165 73.87-165 165s73.88 165 165 165c91.13 0 165-73.87 165-165s-73.87-165-165-165z" />
<glyph unicode="&#xe623;" glyph-name="about" d="M514.272 834.608c-249.517 0-451.79-202.273-451.79-451.79s202.273-451.79 451.79-451.79 451.79 202.273 451.79 451.79-202.273 451.79-451.79 451.79zM514.272-20.129c-222.541 0-402.947 180.406-402.947 402.947s180.406 402.947 402.947 402.947 402.947-180.406 402.947-402.947-180.405-402.947-402.947-402.947zM514.295 593.979c-9.446-10.361-14.308-22.952-14.308-37.484 0-11.96 3.887-22.396 11.535-30.458 7.783-8.211 17.854-12.451 29.314-12.451 9.312 0 23.139 2.85 35.783 16.901 9.866 10.641 14.867 23.438 14.867 37.693 0 11.681-4.032 21.901-11.744 29.832-16.815 17.311-47.382 15.436-65.446-4.035zM549.461 293.283c-12.111-11.542-20.59-18.759-26.237-23.316 2.77 14.954 9.976 44.614 27.33 103.023 17.298 57.89 18.799 67.992 18.799 72.956 0 8.657-3.637 16.335-9.922 21.643-14.125 11.662-39.035 9.35-69.131-7.678-16.779-9.408-34.596-24.76-54.493-46.577l-10.377-11.542 34.425-26.549 8.819 8.715c9.573 9.293 16.086 15.352 20.412 19.394-26.295-86.46-39.093-140.191-39.093-164.262 0-10.907 3.172-19.971 9.573-26.839 6.46-7.039 15.51-10.737 25.892-10.737 10.146 0 21.792 3.926 35.922 11.949 12.741 7.212 31.883 23.030 58.642 48.191l10.838 10.392-31.307 30.475-10.091-9.238z" />
<glyph unicode="&#xe62a;" glyph-name="chart-screen" d="M963.931 179.219v34.824l-37.355-2.676v483.487h-235.163v70.463h-361.152v-70.463h-234.57v-480.81h-35.621v-34.824h432.583v-141.229h-90.314v-35.307h216.754v35.307h-90.314v141.228h435.153zM366.213 730.008h289.004v-35.307h-289.004v35.307zM364.818 332.731l-142.594 73.521 14.296 27.737 123.239-63.524 173.928 159.755 127.581-92.635 93.138 122.414 24.842-18.898-111.608-146.737-131.636 95.622-171.186-157.256z" />
<glyph unicode="&#xe640;" glyph-name="delete1" d="M738.923 24.288h-451.956c-27.2 0-49.327 21.603-49.327 48.157v418.017c0 26.548 22.129 48.147 49.327 48.147h451.956c27.2 0 49.327-21.598 49.327-48.147v-418.017c0-26.555-22.129-48.157-49.327-48.157zM286.966 494.547c-4.447 0-7.168-2.644-7.168-4.084v-418.017c0-1.443 2.722-4.093 7.168-4.093h451.956c4.448 0 7.168 2.651 7.168 4.093v418.017c0 1.44-2.722 4.084-7.168 4.084h-451.956zM832.199 496.302h-640.401c-27.201 0-49.327 20.131-49.327 44.876v61.045c0 24.74 22.128 44.867 49.327 44.867h640.401c27.2 0 49.327-20.127 49.327-44.867v-61.045c0-24.744-22.129-44.876-49.327-44.876zM184.631 541.327c0.387-0.733 2.722-2.866 7.168-2.866h640.401c4.445 0 6.782 2.132 7.168 2.867v60.741c-0.393 0.736-2.733 2.863-7.168 2.863h-640.401c-4.437 0-6.776-2.128-7.168-2.863v-60.742zM600.748 605.354h-174.546c-27.201 0-49.327 20.13-49.327 44.876v10.736c0 24.74 22.128 44.867 49.327 44.867h174.546c27.2 0 49.327-20.126 49.327-44.867v-10.736c0-24.745-22.128-44.876-49.327-44.876zM419.034 650.378c0.387-0.733 2.722-2.865 7.168-2.865h174.546c4.446 0 6.782 2.131 7.168 2.865v10.432c-0.393 0.736-2.734 2.862-7.168 2.862h-174.546c-4.437 0-6.776-2.126-7.168-2.862v-10.432zM404.099 430.833h-30.097c-7.297 0-13.213-5.916-13.213-13.213v-272.34c0-7.297 5.916-13.212 13.213-13.212h30.098c7.297 0 13.212 5.916 13.212 13.212v272.341c0 7.297-5.916 13.213-13.212 13.213zM659.583 430.833h-30.097c-7.298 0-13.213-5.916-13.213-13.213v-272.34c0-7.297 5.917-13.212 13.213-13.212h30.097c7.297 0 13.212 5.916 13.212 13.212v272.341c0 7.297-5.916 13.213-13.212 13.213zM531.841 430.833h-30.098c-7.297 0-13.213-5.916-13.213-13.213v-272.34c0-7.297 5.917-13.212 13.213-13.212h30.098c7.297 0 13.212 5.916 13.212 13.212v272.341c0 7.297-5.916 13.213-13.212 13.213z" />
<glyph unicode="&#xe641;" glyph-name="share3" d="M769.714 306.453c-51.754 0-97.702-24.851-126.571-63.269l-248.664 124.757c3.93 13.798 6.034 28.364 6.034 43.424 0 16.496-2.527 32.399-7.211 47.35l247.724 124.288c28.71-40.052 75.647-66.151 128.687-66.151 87.388 0 158.229 70.84 158.229 158.229s-70.841 158.229-158.229 158.229c-87.389 0-158.229-70.841-158.229-158.229 0-6.046 0.352-12.009 1.011-17.88l-261.275-131.085c-28.371 26.943-66.723 43.479-108.938 43.479-87.388 0-158.229-70.84-158.229-158.229s70.84-158.229 158.229-158.229c43.752 0 83.354 17.758 111.997 46.459l258.676-129.779c-0.964-7.062-1.474-14.266-1.474-21.592 0-87.389 70.84-158.229 158.229-158.229s158.229 70.84 158.229 158.229c-0.001 87.387-70.836 158.228-158.225 158.228v0z" />
<glyph unicode="&#xe642;" glyph-name="youjian" d="M896.699 598.971c0 23.926-19.428 43.444-43.444 43.444h-684.849c-24.016 0-43.444-19.428-43.444-43.444v-433.090c0-23.926 19.428-43.444 43.444-43.444h684.939c23.926 0 43.444 19.428 43.444 43.444v433.090zM544.111 346.762l-0.18-0.18c-17.629-16.19-45.243-16.19-62.782 0.090l-284.769 256.166h633.85l-286.118-256.076zM383.737 380.672l-219.198-194.014v391.175l219.198-197.162zM413.779 354.048l40.566-36.338c15.92-14.661 36.518-22.487 58.105-22.487 0 0 0.090 0 0.090 0 21.587 0 42.185 7.825 58.015 22.397l42.994 38.407 218.929-193.924h-635.559l216.86 191.945zM642.871 382.471l214.251 191.675v-381.371l-214.251 189.696z" />
<glyph unicode="&#xe645;" glyph-name="check" d="M887.904 597.792c-12.864 12.064-33.152 11.488-45.216-1.408l-426.752-454.368-233.12 229.696c-12.608 12.416-32.864 12.288-45.28-0.32-12.416-12.576-12.256-32.864 0.352-45.248l256.48-252.672c0.096-0.096 0.224-0.128 0.32-0.224s0.128-0.224 0.224-0.32c2.016-1.92 4.448-3.008 6.784-4.288 1.152-0.672 2.144-1.664 3.36-2.144 3.776-1.472 7.776-2.24 11.744-2.24 4.192 0 8.384 0.832 12.288 2.496 1.312 0.544 2.336 1.664 3.552 2.368 2.4 1.408 4.896 2.592 6.944 4.672 0.096 0.096 0.128 0.256 0.224 0.352 0.064 0.096 0.192 0.128 0.288 0.224l449.184 478.208c12.16 12.832 11.488 33.088-1.376 45.216z" />
<glyph unicode="&#xe646;" glyph-name="close" d="M557.312 382.752l265.28 263.904c12.544 12.48 12.608 32.704 0.128 45.248-12.512 12.576-32.704 12.608-45.248 0.128l-265.344-263.936-263.040 263.84c-12.448 12.48-32.704 12.544-45.248 0.064-12.512-12.48-12.544-32.736-0.064-45.28l262.976-263.776-265.152-263.744c-12.544-12.48-12.608-32.704-0.128-45.248 6.24-6.272 14.464-9.44 22.688-9.44 8.16 0 16.32 3.104 22.56 9.312l265.216 263.808 265.44-266.24c6.24-6.272 14.432-9.408 22.656-9.408 8.192 0 16.352 3.136 22.592 9.344 12.512 12.48 12.544 32.704 0.064 45.248l-265.376 266.176z" />
<glyph unicode="&#xe64b;" glyph-name="favorfill" d="M957.216 491.68c-3.808 11.36-13.632 19.68-25.504 21.504l-270.336 41.728-120.8 258.624c-5.248 11.232-16.544 18.432-28.928 18.464 0 0-0.032 0-0.064 0-12.384 0-23.648-7.136-28.928-18.336l-121.856-258.016-270.72-40.8c-11.872-1.792-21.728-10.048-25.568-21.408s-0.992-23.936 7.36-32.512l196.448-202.080-46.88-284.8c-1.984-12.096 3.104-24.256 13.12-31.328 9.984-7.072 23.168-7.808 33.888-1.92l241.824 133.024 241.312-133.856c4.832-2.624 10.176-3.968 15.52-3.968 0.256 0 0.48 0 0.64 0 17.696 0 32 14.304 32 32 0 3.968-0.704 7.776-2.016 11.296l-44.896 278.688 196.928 201.248c8.32 8.544 11.232 21.088 7.456 32.448z" />
<glyph unicode="&#xe64c;" glyph-name="favor" d="M767.104-63.936c-5.344 0-10.688 1.344-15.52 4.032l-241.312 133.856-241.824-133.024c-10.72-5.92-23.904-5.152-33.888 1.92-10.016 7.072-15.104 19.264-13.12 31.328l46.88 284.736-196.448 202.080c-8.256 8.512-11.168 20.928-7.456 32.192 3.68 11.296 13.312 19.616 25.024 21.632l155.072 26.592c17.632 2.944 33.984-8.736 36.96-26.144s-8.704-33.952-26.144-36.96l-95.168-16.32 165.344-170.080c7.072-7.296 10.272-17.504 8.64-27.488l-38.816-235.68 199.616 109.824c9.632 5.312 21.344 5.312 30.944-0.064l199.168-110.464-38.016 235.776c-1.632 10.016 1.632 20.224 8.704 27.456l164.672 168.256-225.664 34.816c-10.56 1.632-19.584 8.416-24.128 18.080l-99.2 212.384-100.064-211.84c-7.552-16-26.624-22.816-42.624-15.264-15.968 7.552-22.816 26.624-15.264 42.624l129.152 273.44c5.312 11.2 16.576 18.336 28.928 18.336 0 0 0.032 0 0.064 0 12.416-0.032 23.68-7.232 28.928-18.464l120.8-258.624 270.336-41.728c11.872-1.824 21.696-10.144 25.504-21.504 3.776-11.36 0.864-23.936-7.488-32.48l-196.928-201.216 45.92-284.864c1.952-12.096-3.2-24.256-13.216-31.296-5.472-3.936-11.904-5.856-18.368-5.856z" />
<glyph unicode="&#xe652;" glyph-name="fuxuankuangxuanzhong" d="M734.155 767.755h-444.348c-89.223 0-161.563-72.339-161.563-161.58v-444.349c0-89.231 72.34-161.58 161.563-161.58h444.348c89.252 0 161.601 72.349 161.601 161.58v444.349c-0.001 89.242-72.35 161.58-161.601 161.58zM425.844 225.948l-1.055 1.055-1.054-1.055-139.548 139.539 37.003 37.011 103.602-103.601 260.606 260.587 36.983-37.003-296.537-296.534z" />
<glyph unicode="&#xe655;" glyph-name="fenguangbaobiao" d="M892-16h-760c-11.046 0-20 8.954-20 20s8.954 20 20 20v0h760c11.046 0 20-8.954 20-20s-8.954-20-20-20v0zM232 344h-40c-22.091 0-40-17.909-40-40v0-200c0-22.091 17.909-40 40-40v0h40c22.091 0 40 17.909 40 40v0 200c0 22.091-17.909 40-40 40v0zM192 104v200h40v-200zM432 584h-40c-22.091 0-40-17.909-40-40v0-440c0-22.091 17.909-40 40-40h40c22.091 0 40 17.909 40 40v0 440c0 22.091-17.909 40-40 40v0zM392 104v440h40v-440zM632 504h-40c-22.091 0-40-17.909-40-40v0-360c0-22.091 17.909-40 40-40h40c22.091 0 40 17.909 40 40v0 360c0 22.091-17.909 40-40 40v0zM592 104v360h40v-360zM832 784h-40c-22.091 0-40-17.909-40-40v0-640c0-22.091 17.909-40 40-40h40c22.091 0 40 17.909 40 40v0 640c0 22.091-17.909 40-40 40v0zM792 104v640h40v-640z" />
<glyph unicode="&#xe656;" glyph-name="jian" d="M887.157 25.931h-736.333v737.887h736.333v-737.887zM189.66 64.767h658.661v660.215h-658.661v-660.215zM741.91 376.233h-446.616c-10.874 0-19.418 8.544-19.418 19.418s8.544 19.418 19.418 19.418h446.616c10.874 0 19.418-8.544 19.418-19.418s-8.544-19.418-19.418-19.418z" />
<glyph unicode="&#xe657;" glyph-name="jia" d="M887.157 25.931h-736.333v737.887h736.333v-737.887zM189.66 64.767h658.661v660.215h-658.661v-660.215zM741.91 376.233h-446.616c-10.874 0-19.418 8.544-19.418 19.418s8.544 19.418 19.418 19.418h446.616c10.874 0 19.418-8.544 19.418-19.418s-8.544-19.418-19.418-19.418zM518.991 161.081c-10.874 0-19.418 8.544-19.418 19.418v429.528c0 10.874 8.544 19.418 19.418 19.418s19.418-8.544 19.418-19.418v-429.528c0-10.097-8.544-19.418-19.418-19.418z" />
<glyph unicode="&#xe658;" glyph-name="fenzhijigou" d="M822.689 422.836v19.418h-291.271v58.254h-38.836v-58.254h-291.271v-97.090h38.836v58.254h252.435v-58.254h38.836v58.254h252.435v-58.254h38.836v77.672zM356.655 733.525h310.689c21.449 0 38.836-17.388 38.836-38.836v0-155.345c0-21.449-17.388-38.836-38.836-38.836h-310.689c-21.449 0-38.836 17.388-38.836 38.836v0 155.345c0 21.449 17.388 38.836 38.836 38.836v0zM162.475 345.164h116.508c21.449 0 38.836-17.388 38.836-38.836v-233.017c0-21.449-17.388-38.836-38.836-38.836v0h-116.508c-21.449 0-38.836 17.388-38.836 38.836v0 233.017c0 21.449 17.388 38.836 38.836 38.836v0zM181.893 306.328c-10.724 0-19.418-8.694-19.418-19.418v0-194.181c0-10.724 8.694-19.418 19.418-19.418v0h77.672c10.724 0 19.418 8.694 19.418 19.418v194.181c0 10.724-8.694 19.418-19.418 19.418v0h-77.672zM453.746 345.164h116.508c21.449 0 38.836-17.388 38.836-38.836v-233.017c0-21.449-17.388-38.836-38.836-38.836v0h-116.508c-21.449 0-38.836 17.388-38.836 38.836v0 233.017c0 21.449 17.388 38.836 38.836 38.836v0zM473.164 306.328c-10.724 0-19.418-8.694-19.418-19.418v0-194.181c0-10.724 8.694-19.418 19.418-19.418v0h77.672c10.724 0 19.418 8.694 19.418 19.418v194.181c0 10.724-8.694 19.418-19.418 19.418v0h-77.672zM745.017 345.164h116.508c21.449 0 38.836-17.388 38.836-38.836v-233.017c0-21.449-17.388-38.836-38.836-38.836v0h-116.508c-21.449 0-38.836 17.388-38.836 38.836v0 233.017c0 21.449 17.388 38.836 38.836 38.836v0zM764.435 306.328c-10.724 0-19.418-8.694-19.418-19.418v0-194.181c0-10.724 8.694-19.418 19.418-19.418v0h77.672c10.724 0 19.418 8.694 19.418 19.418v194.181c0 10.724-8.694 19.418-19.418 19.418v0h-77.672z" />
<glyph unicode="&#xe659;" glyph-name="roundcheckfill" d="M512 830.016c-245.92 0-446.016-200.096-446.016-446.016 0-245.952 200.064-446.016 446.016-446.016s446.016 200.064 446.016 446.016c0 245.92-200.064 446.016-446.016 446.016zM727.232 457.568l-256.224-259.008c-0.064-0.064-0.192-0.096-0.256-0.192-0.096-0.064-0.096-0.192-0.192-0.256-2.048-1.984-4.576-3.2-6.944-4.544-1.184-0.672-2.144-1.696-3.392-2.176-3.84-1.536-7.904-2.336-11.968-2.336-4.096 0-8.224 0.8-12.096 2.4-1.28 0.544-2.304 1.632-3.52 2.304-2.368 1.344-4.832 2.528-6.88 4.544-0.064 0.064-0.096 0.192-0.16 0.256-0.064 0.096-0.192 0.096-0.256 0.192l-126.016 129.504c-12.32 12.672-12.032 32.928 0.64 45.248 12.672 12.288 32.896 12.064 45.248-0.64l103.264-106.112 233.28 235.84c12.416 12.576 32.704 12.704 45.248 0.256 12.512-12.448 12.64-32.704 0.224-45.28z" />
<glyph unicode="&#xe65a;" glyph-name="roundcheck" d="M512-64c-247.040 0-448 200.96-448 448s200.96 448 448 448 448-200.96 448-448-200.96-448-448-448zM512 767.712c-211.584 0-383.712-172.128-383.712-383.712 0-211.552 172.128-383.712 383.712-383.712 211.552 0 383.712 172.16 383.712 383.712 0 211.584-172.16 383.712-383.712 383.712zM726.976 502.816c-12.544 12.448-32.832 12.32-45.248-0.256l-233.28-235.84-103.264 106.112c-12.352 12.704-32.608 12.928-45.248 0.64-12.672-12.32-12.96-32.608-0.64-45.248l126.016-129.504c0.064-0.096 0.192-0.096 0.256-0.192 0.064-0.064 0.096-0.192 0.16-0.256 2.016-1.984 4.512-3.2 6.88-4.544 1.248-0.672 2.24-1.792 3.52-2.304 3.872-1.6 8-2.4 12.096-2.4 4.064 0 8.128 0.8 11.968 2.336 1.248 0.512 2.208 1.536 3.392 2.176 2.4 1.344 4.896 2.528 6.944 4.544 0.064 0.064 0.096 0.192 0.192 0.256 0.064 0.096 0.16 0.128 0.256 0.192l256.224 259.008c12.448 12.608 12.32 32.864-0.224 45.28z" />
<glyph unicode="&#xe65b;" glyph-name="roundclosefill" d="M512 832c-247.008 0-448-200.96-448-448s200.96-448 448-448c247.008 0 448 200.96 448 448s-200.96 448-448 448zM694.752 246.016c12.48-12.544 12.448-32.768-0.064-45.248-6.24-6.208-14.4-9.344-22.592-9.344-8.224 0-16.416 3.136-22.656 9.408l-137.6 138.016-138.048-136.576c-6.24-6.144-14.368-9.248-22.496-9.248-8.256 0-16.48 3.168-22.752 9.504-12.416 12.576-12.32 32.8 0.256 45.248l137.888 136.384-137.376 137.824c-12.48 12.512-12.448 32.768 0.064 45.248 12.512 12.512 32.736 12.448 45.248-0.064l137.568-137.984 138.048 136.576c12.544 12.448 32.832 12.32 45.248-0.256 12.448-12.576 12.32-32.832-0.256-45.248l-137.888-136.384 137.408-137.856z" />
<glyph unicode="&#xe65c;" glyph-name="roundclose" d="M512-64c-247.040 0-448 200.96-448 448s200.96 448 448 448 448-200.96 448-448-200.96-448-448-448zM512 767.712c-211.584 0-383.712-172.128-383.712-383.712 0-211.552 172.128-383.712 383.712-383.712 211.552 0 383.712 172.16 383.712 383.712 0 211.584-172.16 383.712-383.712 383.712zM557.056 382.624l138.368 136.864c12.576 12.416 12.672 32.672 0.256 45.248s-32.704 12.672-45.248 0.256l-138.56-137.024-136.448 136.864c-12.512 12.512-32.736 12.576-45.248 0.064-12.512-12.48-12.544-32.736-0.064-45.248l136.256-136.672-137.376-135.904c-12.576-12.448-12.672-32.672-0.256-45.248 6.272-6.336 14.496-9.504 22.752-9.504 8.128 0 16.256 3.104 22.496 9.248l137.568 136.064 138.688-139.136c6.24-6.272 14.432-9.408 22.656-9.408 8.192 0 16.352 3.136 22.592 9.344 12.512 12.48 12.544 32.704 0.064 45.248l-138.496 138.944z" />
<glyph unicode="&#xe65d;" glyph-name="roundrightfill" d="M512 832c-247.040 0-448-200.96-448-448s200.96-448 448-448 448 200.96 448 448-200.96 448-448 448zM661.76 360.032l-160.256-158.496c-6.24-6.144-14.368-9.248-22.496-9.248-8.256 0-16.512 3.168-22.752 9.504-12.416 12.576-12.32 32.8 0.256 45.248l137.408 135.904-136.288 136.672c-12.48 12.512-12.448 32.768 0.064 45.248 12.512 12.512 32.768 12.448 45.248-0.064l158.912-159.36c0.032-0.032 0.032-0.064 0.064-0.096s0.064-0.032 0.096-0.064c2.944-2.976 5.056-6.432 6.592-10.048 0.064-0.128 0.224-0.256 0.256-0.384 4.736-11.616 2.368-25.44-7.104-34.816z" />
<glyph unicode="&#xe65e;" glyph-name="roundright" d="M512-64c-247.040 0-448 200.96-448 448s200.96 448 448 448 448-200.96 448-448-200.96-448-448-448zM512 768c-211.744 0-384-172.256-384-384s172.256-384 384-384c211.744 0 384 172.256 384 384s-172.256 384-384 384zM668.832 394.848c-0.032 0.128-0.192 0.256-0.256 0.384-1.536 3.616-3.648 7.072-6.592 10.048-0.032 0.032-0.064 0.032-0.096 0.064s-0.032 0.064-0.064 0.096l-158.912 159.36c-12.48 12.512-32.736 12.576-45.248 0.064-12.512-12.48-12.544-32.736-0.064-45.248l136.288-136.672-137.408-135.904c-12.576-12.448-12.672-32.672-0.256-45.248 6.24-6.336 14.496-9.504 22.752-9.504 8.128 0 16.256 3.104 22.496 9.248l160.256 158.496c9.504 9.376 11.872 23.2 7.104 34.816z" />
<glyph unicode="&#xe66c;" glyph-name="like" d="M512-32c-28.928 0-57.92 12.672-86.624 41.376l-319.104 322.624c-38.208 47.648-74.272 92.672-74.272 180 0 141.152 114.848 256 256 256 53.088 0 104-16.096 147.296-46.592 14.432-10.176 17.92-30.144 7.712-44.608-10.176-14.432-30.080-17.92-44.608-7.712-32.384 22.848-70.592 34.912-110.4 34.912-105.888 0-192-86.112-192-192 0-61.408 20.288-90.112 59.168-138.688l315.584-318.816c15.968-15.968 28.864-22.304 41.248-22.496 12.704-0.192 24.928 6.176 41.376 22.624l316.672 319.904c26.016 28.192 57.952 75.776 57.952 137.472 0 105.888-86.112 192-192 192-48.064 0-94.080-17.856-129.536-50.272l-134.080-134.112c-12.512-12.512-32.736-12.512-45.248 0s-12.512 32.736 0 45.248l135.104 135.136c48.32 44.192 109.664 68 173.76 68 141.152 0 256-114.848 256-256 0-82.368-41.152-144.288-75.68-181.696l-317.568-320.8c-28.8-28.832-57.792-41.504-86.752-41.504z" />
<glyph unicode="&#xe671;" glyph-name="samefill" d="M352 544h128v-128h-128v128zM918.624 22.624l-145.664 145.664c56.672 66.944 91.040 153.344 91.040 247.712 0 211.744-172.256 384-384 384s-384-172.256-384-384c0-211.744 172.256-384 384-384 94.368 0 180.768 34.368 247.712 91.040l145.664-145.664c6.24-6.24 14.432-9.376 22.624-9.376s16.384 3.136 22.624 9.376c12.512 12.512 12.512 32.736 0 45.248zM288 384v192c0 17.664 14.336 32 32 32h192c17.664 0 32-14.336 32-32v-192c0-17.664-14.336-32-32-32h-192c-17.664 0-32 14.336-32 32zM640 288c0-17.696-14.304-32-32-32h-160c-17.664 0-32 14.304-32 32s14.336 32 32 32h128v128c0 17.664 14.304 32 32 32s32-14.336 32-32v-160z" />
<glyph unicode="&#xe672;" glyph-name="same" d="M512 352h-192c-17.664 0-32 14.336-32 32v192c0 17.664 14.336 32 32 32h192c17.664 0 32-14.336 32-32v-192c0-17.664-14.336-32-32-32zM352 416h128v128h-128v-128zM608 256h-160c-17.664 0-32 14.304-32 32s14.336 32 32 32h128v128c0 17.664 14.304 32 32 32s32-14.336 32-32v-160c0-17.696-14.304-32-32-32zM896-32c-8.192 0-16.384 3.136-22.624 9.376l-167.104 167.104c-12.512 12.512-12.512 32.736 0 45.248 60.448 60.448 93.728 140.832 93.728 226.272 0 176.448-143.552 320-320 320s-320-143.552-320-320c0-176.448 143.552-320 320-320 39.328 0 77.76 7.072 114.176 20.96 16.448 6.24 35.008-1.984 41.312-18.496 6.272-16.512-1.984-35.008-18.496-41.312-43.712-16.672-89.792-25.152-136.992-25.152-211.744 0-384 172.256-384 384s172.256 384 384 384c211.744 0 384-172.256 384-384 0-91.808-32-178.72-90.784-247.968l145.408-145.408c12.512-12.512 12.512-32.736 0-45.248-6.24-6.24-14.432-9.376-22.624-9.376z" />
<glyph unicode="&#xe674;" glyph-name="evaluate" d="M405.536-36.128c-8.8 0-17.568 3.584-23.904 10.688-83.232 93.216-217.856 94.112-220.64 94.112-0.096 0-0.096 0-0.192 0-17.568 0-31.904 14.176-32.032 31.744-0.128 17.664 14.016 32.064 31.648 32.256 6.656 0.352 165.664 0.192 268.96-115.488 11.776-13.184 10.624-33.408-2.56-45.184-6.080-5.44-13.696-8.128-21.28-8.128zM620.128-36.064c-7.776 0-15.584 2.816-21.76 8.544-12.96 12-13.76 32.256-1.728 45.216 106.976 115.52 262.752 115.392 268.896 115.136 17.696-0.192 31.872-14.656 31.68-32.32-0.192-17.568-14.464-31.68-32-31.68-0.096 0-0.16 0-0.256 0v0c-2.656 0-134.56-0.864-221.376-94.624-6.272-6.848-14.88-10.272-23.456-10.272zM563.712 126.688h-101.408c-3.232 0-6.368 0.48-9.344 1.408-108.256 13.888-200.256 76.704-259.552 177.44-68.832 116.992-84.608 268.576-39.2 377.216 4.896 11.68 16.224 19.392 28.896 19.648l9.632 0.096c60.96 0 117.888-11.52 169.696-34.304 37.44 68.448 80.192 120.384 127.328 154.688 2.496 2.176 5.344 4 8.512 5.344v0c9.888 4.288 21.376 3.36 30.432-2.528 1.568-1.024 3.040-2.176 4.384-3.456 47.264-34.688 88.832-85.856 126.464-155.744 52.832 23.872 111.072 35.968 173.632 35.968l9.792-0.096c12.672-0.256 24-7.968 28.896-19.648 45.408-108.672 29.664-260.256-39.232-377.248-59.296-100.672-151.264-163.52-259.488-177.44-3.040-0.832-6.176-1.344-9.44-1.344zM468 190.688h90.016c0.672 0.128 1.376 0.224 2.080 0.32 115.712 12.864 182.080 87.072 217.376 147.008 54.048 91.872 70.432 211.936 42.528 300.32-58.24-1.888-111.616-16.16-158.816-42.528-7.712-4.288-16.832-5.184-25.184-2.624-8.384 2.624-15.328 8.608-19.2 16.512-32.448 66.368-67.232 115.2-105.824 148.48-38.624-33.216-74.176-82.4-105.92-146.592-3.872-7.808-10.72-13.696-19.040-16.32-8.32-2.656-17.28-1.76-24.96 2.4-46.208 25.12-98.336 38.784-155.008 40.64-27.904-88.384-11.52-208.448 42.528-300.288 35.296-59.936 101.632-134.112 217.312-147.008 0.704-0.096 1.408-0.192 2.112-0.32zM512.768-64c-17.664 0-32 14.304-32 32v190.688c0 17.696 14.336 32 32 32s32-14.304 32-32v-190.688c-0.032-17.696-14.336-32-32-32z" />
<glyph unicode="&#xe687;" glyph-name="circle1" d="M511.998 847.999c-256.259 0-463.998-207.739-463.998-464 0-256.258 207.739-463.998 463.998-463.998 256.263 0 464.002 207.741 464.002 463.998 0 256.261-207.739 464-464.002 464zM512.002-16.001c-220.915 0-400.002 179.088-400.002 400 0 220.917 179.086 400 400.002 400 220.912 0 399.998-179.083 399.998-400 0-220.912-179.086-400-399.998-400z" />
<glyph unicode="&#xe688;" glyph-name="radio" d="M320.5 383.5c0-106.039 85.961-192 192-192s192 85.961 192 192v0c0 106.039-85.961 192-192 192s-192-85.961-192-192v0zM511.998 847.999c-256.259 0-463.998-207.739-463.998-464 0-256.258 207.739-463.998 463.998-463.998 256.263 0 464.002 207.741 464.002 463.998 0 256.261-207.739 464-464.002 464zM512.002-16.001c-220.915 0-400.002 179.088-400.002 400 0 220.917 179.086 400 400.002 400 220.912 0 399.998-179.083 399.998-400 0-220.912-179.086-400-399.998-400z" />
<glyph unicode="&#xe68e;" glyph-name="caidan_xunzhang" d="M649.791 471.365l70.787 105.298c2.628 3.877 4.197 8.656 4.203 13.803v139.135c0 27.283-22.199 49.47-49.47 49.47h-330.637c-27.272 0-49.47-22.187-49.47-49.47v-139.134c0.005-5.026 1.5-9.701 4.068-13.609l-0.058 0.094 69.518-106.517c-72.239-46.568-120.17-127.733-120.17-219.891 0-144.158 117.272-261.432 261.431-261.432s261.432 117.272 261.432 261.431c0 92.777-48.581 174.409-121.634 220.822zM509.992 511.976c-0.018 0-0.040 0-0.062 0-19.184 0-37.885-2.066-55.893-5.987l1.727 0.315v223.298h108.457v-223.298c-16.281 3.606-34.982 5.672-54.164 5.672-0.022 0-0.045 0-0.067 0h0.003zM675.311 598.004l-61.62-91.659v223.257h61.62v-131.598zM344.674 729.602h61.62v-226.209l-61.62 94.431v131.779zM509.992 38.582c-116.887 0-211.962 95.087-211.962 211.961s95.074 211.962 211.962 211.962 211.962-95.087 211.962-211.962-95.075-211.962-211.961-211.962zM509.993 423.338c-95.268 0-172.782-77.513-172.782-172.794s77.513-172.795 172.782-172.795c95.292 0 172.805 77.514 172.805 172.795s-77.513 172.794-172.805 172.794zM509.993 127.219c-67.997 0-123.312 55.328-123.312 123.325s55.315 123.323 123.312 123.323 123.337-55.327 123.337-123.324-55.339-123.325-123.337-123.325z" />
<glyph unicode="&#xe6a0;" glyph-name="pulldown" d="M512-64c-247.040 0-448 200.96-448 448s200.96 448 448 448 448-200.96 448-448-200.96-448-448-448zM512 768c-211.744 0-384-172.256-384-384s172.256-384 384-384c211.744 0 384 172.256 384 384s-172.256 384-384 384zM694.56 373.856c-12.544 12.608-33.376 12.64-45.952 0.064l-104.608-103.904v306.656c0 17.76-14.208 32.16-32 32.16-17.76 0-32-14.4-32-32.16v-308.32l-105.216 106.688c-12.48 12.608-32.704 12.736-45.312 0.256-12.64-12.512-12.672-32.896-0.192-45.504l159.36-161.056c6.272-6.336 14.592-9.568 22.88-9.568 8.16 0 16.384 3.168 22.624 9.312 0.032 0.064 0.032 0.064 0.064 0.128 0.032 0 0.064 0 0.096 0.064l160.192 159.68c12.576 12.544 12.608 32.928 0.064 45.504z" />
<glyph unicode="&#xe6a1;" glyph-name="pullup" d="M512-64c-247.040 0-448 200.96-448 448s200.96 448 448 448 448-200.96 448-448-200.96-448-448-448zM512 768c-211.744 0-384-172.256-384-384s172.256-384 384-384c211.744 0 384 172.256 384 384s-172.256 384-384 384zM694.464 437.632l-158.496 160.256c-9.344 9.472-23.168 11.84-34.784 7.136-0.736-0.288-1.312-0.992-2.016-1.344-2.976-1.472-5.952-3.072-8.448-5.536-0.032-0.032-0.032-0.064-0.064-0.096s-0.064-0.032-0.096-0.064l-159.36-158.912c-12.512-12.48-12.544-32.736-0.064-45.248 6.24-6.272 14.464-9.408 22.656-9.408 8.16 0 16.352 3.104 22.592 9.344l103.616 103.296v-305.056c0-17.696 14.336-32 32-32s32 14.304 32 32v306.752l104.96-106.112c6.24-6.336 14.496-9.504 22.752-9.504 8.128 0 16.256 3.072 22.496 9.248 12.576 12.416 12.704 32.672 0.256 45.248z" />
<glyph unicode="&#xe6a4;" glyph-name="refresh" d="M939.456 639.776c-16.672 5.984-34.976-2.72-40.896-19.36l-24.768-69.344c-28.992 65.312-74.784 122.72-133.088 165.92-185.376 137.28-449.408 99.776-588.384-83.648-67.264-88.768-95.616-198.176-79.84-308.032 15.84-110.304 74.208-207.776 164.352-274.496 75.424-55.808 163.808-82.752 251.456-82.752 128.032 0 254.56 57.44 336.992 166.272 36.48 48.128 61.472 102.080 74.208 160.416 3.776 17.248-7.136 34.304-24.416 38.080-17.216 3.712-34.304-7.104-38.080-24.416-10.784-49.184-31.872-94.752-62.72-135.456-117.888-155.52-341.92-187.232-499.392-70.72-76.288 56.48-125.664 138.912-139.072 232.16-13.344 92.8 10.656 185.248 67.488 260.288 117.856 155.584 341.792 187.424 499.328 70.848 57.024-42.24 99.84-100.608 122.976-166.624l-109.984 42.944c-16.416 6.368-35.008-1.696-41.44-18.176s1.728-35.008 18.176-41.44l161.856-63.2c3.808-1.472 7.744-2.208 11.616-2.208 0.544 0 1.024 0.192 1.568 0.224 1.216-0.128 2.432-0.64 3.648-0.64 13.12 0 25.472 8.16 30.112 21.248l57.632 161.184c5.984 16.672-2.688 35.008-19.328 40.928z" />
<glyph unicode="&#xe6b0;" glyph-name="qrcode1" d="M419.2 736v-256h-256v256h256M419.2 800h-256c-35.2 0-64-28.8-64-64v-256c0-35.2 28.8-64 64-64h256c35.2 0 64 28.8 64 64v256c0 35.2-28.8 64-64 64zM899.2 736v-256h-256v256h256M899.2 800h-256c-35.2 0-64-28.8-64-64v-256c0-35.2 28.8-64 64-64h256c35.2 0 64 28.8 64 64v256c0 35.2-28.8 64-64 64zM419.2 288v-256h-256v256h256M419.2 352h-256c-35.2 0-64-28.8-64-64v-256c0-35.2 28.8-64 64-64h256c35.2 0 64 28.8 64 64v256c0 35.2-28.8 64-64 64zM611.2 0c-19.2 0-32 12.8-32 32v256c0 19.2 12.8 32 32 32s32-12.8 32-32v-256c0-16-16-32-32-32zM768 0c-19.2 0-32 12.8-32 32v256c0 19.2 12.8 32 32 32s32-12.8 32-32v-256c0-16-16-32-32-32zM931.2 0c-19.2 0-32 12.8-32 32v256c0 19.2 12.8 32 32 32s32-12.8 32-32v-256c0-16-16-32-32-32z" />
<glyph unicode="&#xe6b7;" glyph-name="profile1" d="M768 512c0 160-128 288-288 288s-288-128-288-288c0-108.8 57.6-201.6 147.2-249.6-121.6-48-214.4-153.6-240-288-3.2-16 6.4-35.2 25.6-38.4h3.2c16 0 28.8 9.6 32 25.6 28.8 150.4 160 259.2 313.6 262.4h6.4c160 0 288 128 288 288zM256 512c0 124.8 99.2 224 224 224s224-99.2 224-224c0-121.6-99.2-220.8-220.8-224h-9.6c-121.6 3.2-217.6 102.4-217.6 224zM896 192h-256c-19.2 0-32-12.8-32-32v-192c0-19.2 12.8-32 32-32h256c19.2 0 32 12.8 32 32v192c0 16-12.8 32-32 32zM864 0h-192v128h192v-128zM736 32h32c19.2 0 32 12.8 32 32s-12.8 32-32 32h-32c-19.2 0-32-12.8-32-32s16-32 32-32z" />
<glyph unicode="&#xe6b8;" glyph-name="home1" d="M96 416c-9.6 0-19.2 3.2-25.6 12.8-12.8 12.8-9.6 35.2 3.2 44.8l377.6 310.4c35.2 25.6 86.4 25.6 118.4 0l377.6-307.2c12.8-9.6 16-32 3.2-44.8s-32-16-44.8-3.2l-374.4 300.8c-9.6 6.4-28.8 6.4-38.4 0l-377.6-307.2c-6.4-6.4-12.8-6.4-19.2-6.4zM816-32h-208c-19.2 0-32 12.8-32 32v150.4c0 22.4-38.4 44.8-67.2 44.8s-64-19.2-64-44.8v-150.4c0-19.2-12.8-32-32-32h-201.6c-48 0-83.2 35.2-83.2 80v304c0 19.2 12.8 32 32 32s32-12.8 32-32v-304c0-9.6 6.4-16 19.2-16h172.8v118.4c0 64 67.2 108.8 128 108.8s131.2-44.8 131.2-108.8v-118.4h176c9.6 0 16 0 16 19.2v300.8c0 19.2 12.8 32 32 32s32-12.8 32-32v-304c-3.2-48-35.2-80-83.2-80z" />
<glyph unicode="&#xe6bb;" glyph-name="homefill" d="M947.2 473.6l-374.4 307.2c-32 25.6-86.4 25.6-118.4 0l-377.6-310.4c-12.8-6.4-16-22.4-9.6-35.2 3.2-12.8 16-19.2 28.8-19.2h32v-364.8c0-48 35.2-83.2 83.2-83.2h204.8c19.2 0 32 12.8 32 32v147.2c0 22.4 35.2 44.8 64 44.8s67.2-22.4 67.2-44.8v-147.2c0-19.2 12.8-32 32-32h208c48 0 80 32 80 83.2v364.8h32c12.8 0 25.6 9.6 28.8 22.4s0 25.6-12.8 35.2z" />
<glyph unicode="&#xe6d8;" glyph-name="roundaddfill" d="M828.704 699.424c-84.608 84.192-197.056 130.56-316.704 130.56s-232.128-46.368-316.736-130.56c-84.64-84.224-131.264-196.256-131.264-315.424 0-119.2 46.624-231.2 131.232-315.424 84.608-84.192 197.088-130.56 316.736-130.56s232.128 46.368 316.704 130.56c84.672 84.256 131.296 196.288 131.264 315.456 0.032 119.168-46.56 231.168-131.232 315.392zM736 352h-192v-192c0-17.696-14.336-32-32-32s-32 14.304-32 32v192h-192c-17.664 0-32 14.336-32 32s14.336 32 32 32h192v192c0 17.664 14.336 32 32 32s32-14.336 32-32v-192h192c17.696 0 32-14.336 32-32s-14.304-32-32-32z" />
<glyph unicode="&#xe6d9;" glyph-name="roundadd" d="M512-62.016c-119.648 0-232.128 46.368-316.736 130.56-84.64 84.256-131.264 196.256-131.264 315.456 0 119.168 46.624 231.2 131.232 315.424 84.608 84.192 197.088 130.56 316.736 130.56s232.128-46.368 316.704-130.56c84.672-84.224 131.264-196.256 131.264-315.392 0.032-119.2-46.592-231.232-131.264-315.456-84.544-84.192-197.024-130.592-316.672-130.592zM512 766.016c-102.624 0-199.072-39.744-271.584-111.936-72.48-72.128-112.416-168.064-112.416-270.080s39.904-197.952 112.384-270.048c72.512-72.192 168.96-111.936 271.584-111.936 102.592 0 199.072 39.744 271.584 111.936 72.48 72.16 112.416 168.064 112.384 270.080 0 102.016-39.904 197.92-112.384 270.016-72.48 72.192-168.96 111.968-271.552 111.968zM736 416h-192v192c0 17.664-14.336 32-32 32s-32-14.336-32-32v-192h-192c-17.664 0-32-14.336-32-32s14.336-32 32-32h192v-192c0-17.696 14.336-32 32-32s32 14.304 32 32v192h192c17.696 0 32 14.336 32 32s-14.304 32-32 32z" />
<glyph unicode="&#xe6f2;" glyph-name="fuxuankuang" d="M768 768h-512c-70.4 0-128-57.6-128-128v-512c0-70.4 57.6-128 128-128h512c70.4 0 128 57.6 128 128v512c0 70.4-57.6 128-128 128zM832 128c0-35.2-28.8-64-64-64h-512c-35.2 0-64 28.8-64 64v512c0 35.2 28.8 64 64 64h512c35.2 0 64-28.8 64-64v-512z" />
<glyph unicode="&#xe6f5;" glyph-name="wefill" d="M768 163.2c-6.4 0-12.8 3.2-19.2 6.4-12.8 9.6-16 32-6.4 44.8 38.4 48 57.6 105.6 57.6 166.4 0 64-25.6 128-70.4 176-12.8 12.8-9.6 32 3.2 44.8s32 9.6 44.8-3.2c54.4-60.8 86.4-140.8 86.4-220.8 0-73.6-25.6-147.2-73.6-204.8-3.2-6.4-12.8-9.6-22.4-9.6zM275.2 163.2c-9.6 0-16 3.2-22.4 9.6-57.6 57.6-92.8 134.4-92.8 214.4s32 156.8 92.8 214.4c12.8 12.8 32 12.8 44.8 0s12.8-32 0-44.8c-44.8-48-73.6-108.8-73.6-169.6s25.6-121.6 73.6-169.6c12.8-12.8 12.8-32 0-44.8-6.4-6.4-12.8-9.6-22.4-9.6zM224 0c-6.4 0-16 3.2-22.4 6.4l-48 48c-76.8 92.8-121.6 208-121.6 329.6s44.8 240 124.8 329.6c16 16 28.8 32 44.8 44.8 16 9.6 35.2 9.6 48-3.2s9.6-32-3.2-44.8c-16-12.8-28.8-25.6-41.6-41.6-70.4-76.8-108.8-179.2-108.8-284.8s38.4-204.8 105.6-284.8c12.8-16 25.6-28.8 41.6-41.6 12.8-12.8 16-32 3.2-44.8-3.2-6.4-12.8-12.8-22.4-12.8zM800 0c-9.6 0-16 3.2-22.4 9.6-12.8 12.8-12.8 32 0 44.8 28.8 28.8 54.4 54.4 64 67.2 57.6 76.8 86.4 166.4 86.4 262.4 0 102.4-35.2 201.6-99.2 278.4-16 19.2-32 35.2-51.2 51.2-12.8 12.8-16 32-3.2 44.8s32 16 44.8 3.2c22.4-19.2 41.6-38.4 57.6-57.6 73.6-89.6 115.2-201.6 115.2-320 0-108.8-35.2-211.2-99.2-297.6-16-22.4-51.2-57.6-70.4-76.8-6.4-6.4-12.8-9.6-22.4-9.6zM672 489.6c-19.2 16-44.8 25.6-70.4 22.4s-48-16-64-35.2l-25.6-32-25.6 32c-32 41.6-92.8 48-134.4 12.8-19.2-16-32-41.6-32-67.2-3.2-25.6 6.4-51.2 22.4-73.6l96-118.4c19.2-22.4 44.8-35.2 70.4-35.2h3.2c28.8-3.2 57.6 12.8 76.8 35.2l96 118.4c32 41.6 25.6 105.6-12.8 140.8z" />
<glyph unicode="&#xe701;" glyph-name="sort" d="M384 576h512c17.696 0 32 14.336 32 32s-14.304 32-32 32h-512c-17.664 0-32-14.336-32-32s14.336-32 32-32zM896 416h-512c-17.664 0-32-14.336-32-32s14.336-32 32-32h512c17.696 0 32 14.336 32 32s-14.304 32-32 32zM896 192h-512c-17.664 0-32-14.304-32-32s14.336-32 32-32h512c17.696 0 32 14.304 32 32s-14.304 32-32 32zM128 608c0 35.346 28.654 64 64 64s64-28.654 64-64v0c0-35.346-28.654-64-64-64s-64 28.654-64 64v0zM128 384c0 35.346 28.654 64 64 64s64-28.654 64-64v0c0-35.346-28.654-64-64-64s-64 28.654-64 64v0zM128 160c0 35.346 28.654 64 64 64s64-28.654 64-64v0c0-35.346-28.654-64-64-64s-64 28.654-64 64v0z" />
<glyph unicode="&#xe738;" glyph-name="repair" d="M816.672-41.344c-8.192 0-16.384 3.136-22.624 9.376l-213.952 213.952c-12.512 12.512-12.512 32.736 0 45.248s32.736 12.512 45.248 0l191.328-191.328 33.408 33.376-190.848 190.848c-12.512 12.512-12.512 32.736 0 45.248s32.736 12.512 45.248 0l213.472-213.472c6.016-6.016 9.376-14.112 9.376-22.624s-3.36-16.64-9.376-22.624l-78.656-78.624c-6.272-6.24-14.464-9.376-22.624-9.376zM590.752 768c0 0.032 0 0.064 0 0.064 1.472 4.16 2.048 8.352 1.792 12.512 0 0 0 0 0 0s-0.032 0.064-0.032 0.096c-0.256 4.128-1.312 8.096-3.104 11.776-0.352 0.704-0.896 1.248-1.28 1.92-1.632 2.848-3.456 5.472-5.952 7.712-0.928 0.864-2.080 1.376-3.136 2.112-1.92 1.376-3.616 3.008-5.888 3.968-0.608 0.256-1.248 0.384-1.888 0.608-0.032 0-0.064 0.032-0.096 0.032-114.144 46.624-243.808 20.704-331.072-66.592-0.768-0.736-1.056-1.792-1.76-2.624-0.864-0.704-1.888-0.992-2.688-1.792l-161.984-161.344c-6.016-6.016-9.408-14.144-9.408-22.656s3.36-16.64 9.376-22.656l98.304-98.304c6.016-6.016 14.144-9.376 22.624-9.376s16.64 3.36 22.624 9.376l56.032 56.032 68.192-68.224c6.24-6.24 14.432-9.376 22.624-9.376s16.384 3.136 22.624 9.376c12.512 12.48 12.512 32.736 0 45.248l-90.816 90.848c-12.512 12.512-32.736 12.512-45.248 0l-56.032-56.032-52.992 53.024 139.264 138.72c0.832 0.8 1.12 1.888 1.824 2.752 0.864 0.704 1.92 0.992 2.72 1.824 40 39.936 91.296 63.072 144.864 68.768-2.208-1.664-4.384-3.392-6.56-5.12-8.96-6.784-17.632-14.016-25.664-22.048-0.544-0.544-0.736-1.248-1.216-1.824-19.232-19.36-35.936-41.024-49.568-64.512-2.464-4.224-4.768-8.448-7.008-12.736l0.416-0.224c-12.288-24.64-12.288-53.664 0.48-78.144 1.536-2.944 3.52-5.504 5.76-7.744 0.768-0.96 1.088-2.112 1.984-2.976l70.432-70.464c6.24-6.24 14.432-9.376 22.624-9.376s16.384 3.136 22.624 9.376c12.512 12.48 12.512 32.736 0 45.248l-67.072 67.072c-2.624 6.112-2.688 13.024 0.448 18.976 0.16 0.288 0.128 0.608 0.256 0.896 1.44 2.656 2.848 5.344 4.384 7.968 11.008 18.944 24.48 36.448 40.064 52.032 4.096 4.096 8.608 7.648 12.96 11.456 30.144 25.28 67.232 40.864 106.816 43.136 0.576 0.032 1.056 0.352 1.632 0.416 3.616 0.384 7.104 1.184 10.368 2.72 0.512 0.256 0.896 0.64 1.376 0.896 3.168 1.696 6.048 3.776 8.512 6.496 0.256 0.288 0.384 0.64 0.608 0.928 2.080 2.464 4.128 4.928 5.44 8.064 0.288 0.576 0.192 1.152 0.416 1.696zM289.536-64.032c-28.384 0-56.928 6.368-82.624 18.432-9.408 4.448-16.096 13.184-17.888 23.456-1.792 10.24 1.504 20.736 8.896 28.128l88.064 88.096-33.056 33.024-87.52-87.488c-7.424-7.424-18.048-10.848-28.384-8.832-10.336 1.888-19.104 8.704-23.392 18.304-32.736 72.64-17.088 159.072 38.944 215.104 50.048 50.080 126.048 68.384 193.952 47.040l238.688 238.72c-21.28 67.712-3.648 143.264 47.040 193.952 36.128 36.16 84.256 56.064 135.456 56.064 27.264 0 54.816-5.92 79.648-17.12 9.568-4.32 16.448-13.056 18.304-23.392 1.92-10.336-1.408-20.96-8.832-28.384l-88.8-88.8 33.024-33.056 89.376 89.344c7.392 7.392 17.92 10.72 28.128 8.896 10.272-1.792 19.040-8.48 23.456-17.888 34.496-73.376 19.424-160.96-37.536-217.92-36.096-36.096-84.128-56-135.296-56-20.704 0-41.536 3.392-61.216 9.952l-237.12-237.12c22.688-68.48 5.44-145.024-46.048-196.544-36.064-36.096-84.128-55.968-135.264-55.968zM282.592 0.16c36.352-2.112 71.36 11.392 96.992 37.024 37.952 37.952 47.936 96.384 24.864 145.408-5.76 12.224-3.232 26.72 6.336 36.256l266.816 266.848c9.536 9.536 24.032 12.032 36.256 6.336 47.936-22.56 108-12.544 145.408 24.864 25.952 25.92 38.784 61.408 36.992 96.96l-72.576-72.544c-6.016-6.016-14.112-9.376-22.624-9.376v0c-8.512 0-16.64 3.36-22.624 9.376l-78.272 78.272c-12.512 12.512-12.512 32.736 0 45.248l71.040 71.040c-35.072 0.896-68.8-12.384-93.696-37.28-37.92-37.92-48.064-94.272-25.856-143.552 5.44-12.128 2.848-26.368-6.56-35.776l-267.936-267.968c-9.376-9.376-23.648-11.936-35.776-6.56-47.68 21.504-106.624 11.104-143.584-25.856-25.504-25.536-38.464-59.392-37.408-93.856l69.92 69.92c12.512 12.512 32.736 12.512 45.248 0l78.304-78.272c6.016-6.016 9.376-14.112 9.376-22.624 0-8.48-3.36-16.64-9.376-22.624l-71.264-71.264z" />
<glyph unicode="&#xe742;" glyph-name="shujudaping" d="M120.406 675.469v-523.031h776.719v523.031h-776.719zM865.344 184.125h-713.25v459.656h713.25v-459.656zM706.813 516.937c-17.531 0-31.688-14.156-31.688-31.688 0-3.844 0.656-7.5 1.875-10.875l-121.313-94.313c-5.813 6.188-14.063 10.125-23.25 10.125-8.719 0-16.688-3.563-22.406-9.281l-59.625 59.625c1.781 3.938 2.813 8.438 2.813 13.031 0 17.531-14.156 31.688-31.688 31.688s-31.688-14.156-31.688-31.688c0-4.031 0.75-7.875 2.156-11.438l-74.25-61.875c-5.813 6.094-13.969 9.938-22.969 9.938-17.531 0-31.688-14.156-31.688-31.688s14.156-31.688 31.688-31.688c17.531 0 31.688 14.156 31.688 31.688 0 4.031-0.75 7.875-2.156 11.438l74.25 61.875c5.813-6.094 13.969-9.938 22.969-9.938 8.719 0 16.688 3.563 22.406 9.281l59.625-59.625c-1.781-3.938-2.813-8.438-2.813-13.031 0-17.531 14.156-31.688 31.688-31.688s31.688 14.156 31.688 31.688c0 3.844-0.656 7.5-1.875 10.875l121.406 94.313c5.813-6.188 14.063-10.125 23.25-10.125 17.531 0 31.688 14.156 31.688 31.688s-14.25 31.688-31.781 31.688zM294.688 342.656c-8.719 0-15.844 7.125-15.844 15.844s7.125 15.844 15.844 15.844c8.719 0 15.844-7.125 15.844-15.844s-7.031-15.844-15.844-15.844zM421.531 437.719c-8.719 0-15.844 7.125-15.844 15.844s7.125 15.844 15.844 15.844 15.844-7.125 15.844-15.844-7.125-15.844-15.844-15.844zM532.531 342.656c-8.719 0-15.844 7.125-15.844 15.844s7.125 15.844 15.844 15.844 15.844-7.125 15.844-15.844-7.125-15.844-15.844-15.844zM706.813 469.406c-8.719 0-15.844 7.125-15.844 15.844s7.125 15.844 15.844 15.844c8.719 0 15.844-7.125 15.844-15.844s-7.031-15.844-15.844-15.844zM593.938 136.594l33.656-95.063h-253.594l33.656 95.063h-33.469l-47.719-126.844h348.75l-47.719 126.844h-33.563zM849.5 627.937h-681.563v-15.844h681.563v15.844z" />
<glyph unicode="&#xe771;" glyph-name="xiangxia1" d="M163.397 606.831c-40.578 0-66.525-54.185-35.441-85.258l349.262-349.278c20.032-20.032 49.824-20.032 69.854 0l349.274 349.278c30.305 30.294 6.678 85.258-34.929 85.258h-698.021zM959.524 37.208" />
<glyph unicode="&#xe78f;" glyph-name="xiangyou" d="M289.169 35.397c0-40.578 54.185-66.525 85.258-35.441l349.278 349.262c20.032 20.032 20.032 49.824 0 69.854l-349.278 349.274c-30.294 30.305-85.258 6.678-85.258-34.929v-698.021zM858.792 831.524" />
<glyph unicode="&#xe7a5;" glyph-name="dian" d="M352 384c0-88.366 71.634-160 160-160s160 71.634 160 160v0c0 88.366-71.634 160-160 160s-160-71.634-160-160v0z" />
<glyph unicode="&#xe807;" glyph-name="search_list_light" d="M953.6 100.267l-145.067 192c53.333 44.8 89.6 113.067 89.6 187.733-2.133 136.533-110.933 245.333-247.467 245.333-134.4 0-245.333-108.8-245.333-245.333s110.933-245.333 245.333-245.333c44.8 0 85.333 12.8 121.6 32v-2.133l145.067-192c4.267-6.4 10.667-8.533 17.067-8.533 4.267 0 8.533 2.133 12.8 4.267 10.667 8.533 12.8 23.467 6.4 32zM448 480c0 110.933 91.733 202.667 202.667 202.667s202.667-91.733 202.667-202.667-91.733-202.667-202.667-202.667-202.667 91.733-202.667 202.667zM128 618.667h192c12.8 0 21.333 8.533 21.333 21.333s-8.533 21.333-21.333 21.333h-192c-12.8 0-21.333-8.533-21.333-21.333s8.533-21.333 21.333-21.333zM128 405.333c-12.8 0-21.333-8.533-21.333-21.333s8.533-21.333 21.333-21.333h128c12.8 0 21.333 8.533 21.333 21.333s-8.533 21.333-21.333 21.333h-128zM467.2 194.133h-341.333c-12.8 0-21.333-8.533-21.333-21.333s8.533-21.333 21.333-21.333h341.333c12.8 0 21.333 8.533 21.333 21.333s-8.533 21.333-21.333 21.333z" />
<glyph unicode="&#xe82b;" glyph-name="round_list_light" d="M512 832c-247.467 0-448-200.533-448-448s200.533-448 448-448 448 200.533 448 448-200.533 448-448 448zM512-21.333c-224 0-405.333 181.333-405.333 405.333s181.333 405.333 405.333 405.333 405.333-181.333 405.333-405.333-181.333-405.333-405.333-405.333zM746.667 554.667h-298.667c-12.8 0-21.333-8.533-21.333-21.333s8.533-21.333 21.333-21.333h298.667c12.8 0 21.333 8.533 21.333 21.333s-8.533 21.333-21.333 21.333zM277.333 533.333c0-23.564 19.103-42.667 42.667-42.667s42.667 19.103 42.667 42.667v0c0 23.564-19.103 42.667-42.667 42.667s-42.667-19.103-42.667-42.667v0zM746.667 405.333h-298.667c-12.8 0-21.333-8.533-21.333-21.333s8.533-21.333 21.333-21.333h298.667c12.8 0 21.333 8.533 21.333 21.333s-8.533 21.333-21.333 21.333zM277.333 384c0-23.564 19.103-42.667 42.667-42.667s42.667 19.103 42.667 42.667v0c0 23.564-19.103 42.667-42.667 42.667s-42.667-19.103-42.667-42.667v0zM746.667 256h-298.667c-12.8 0-21.333-8.533-21.333-21.333s8.533-21.333 21.333-21.333h298.667c12.8 0 21.333 8.533 21.333 21.333s-8.533 21.333-21.333 21.333zM277.333 234.667c0-23.564 19.103-42.667 42.667-42.667s42.667 19.103 42.667 42.667v0c0 23.564-19.103 42.667-42.667 42.667s-42.667-19.103-42.667-42.667v0z" />
<glyph unicode="&#xe832;" glyph-name="star-fill" d="M752-43.2c-9.6 0-20.8 3.2-30.4 8l-208 104-209.6-104c-20.8-11.2-48-9.6-67.2 4.8s-30.4 40-25.6 64l43.2 224-164.8 153.6c-17.6 17.6-24 44.8-17.6 67.2 8 24 27.2 41.6 52.8 44.8l228.8 41.6 102.4 208c11.2 22.4 33.6 36.8 57.6 36.8s48-14.4 57.6-36.8l102.4-208 228.8-40c24-3.2 44.8-20.8 51.2-44.8 8-24 1.6-49.6-16-67.2l-164.8-155.2 41.6-224c4.8-25.6-6.4-49.6-25.6-64-9.6-8-22.4-12.8-36.8-12.8z" />
<glyph unicode="&#xe833;" glyph-name="rate" d="M959.008 489.984l-308 47.008-139.008 295.008-139.008-295.008-308-47.008 223.008-228-52.992-324 276.992 152.992 276.992-152.992-52.992 324zM512 156l-208-116.992 40 235.008-179.008 182.016 242.016 32 104.992 224 104-224 240.992-34.016-176.992-180.992 36.992-235.008z" />
<glyph unicode="&#xea47;" glyph-name="move-up" d="M704 384v-384h64v384h160l-192 192-192-192zM64 704h96v-64h-96v64zM192 704h96v-64h-96v64zM320 704h64v-96h-64v96zM64 480h64v-96h-64v96zM160 448h96v-64h-96v64zM288 448h96v-64h-96v64zM64 608h64v-96h-64v96zM320 576h64v-96h-64v96zM320 192v-192h-192v192h192zM384 256h-320v-320h320v320z" />
<glyph unicode="&#xea48;" glyph-name="move-down" d="M768 192v384h-64v-384h-160l192-192 192 192zM320 640v-192h-192v192h192zM384 704h-320v-320h320v320zM64 256h96v-64h-96v64zM192 256h96v-64h-96v64zM320 256h64v-96h-64v96zM64 32h64v-96h-64v96zM160 0h96v-64h-96v64zM288 0h96v-64h-96v64zM64 160h64v-96h-64v96zM320 128h64v-96h-64v96z" />
</font>
</defs>
</svg>
