<?xml version="1.0" standalone="no"?>
<!DOCTYPE svg PUBLIC "-//W3C//DTD SVG 1.1//EN" "http://www.w3.org/Graphics/SVG/1.1/DTD/svg11.dtd" >
<!--
2013-9-30: Created.
-->
<svg>
<metadata>
Created by iconfont
</metadata>
<defs>

<font id="iconfont" horiz-adv-x="1024" >
  <font-face
    font-family="iconfont"
    font-weight="500"
    font-stretch="normal"
    units-per-em="1024"
    ascent="896"
    descent="-128"
  />
    <missing-glyph />
    
    <glyph glyph-name="clock" unicode="&#58970;" d="M512.000512 831.090665c-246.926856 0-447.090665-200.158692-447.090665-447.088618 0-246.935042 200.163809-447.090665 447.090665-447.090665 246.935042 0 447.087595 200.158692 447.087595 447.090665C959.088106 630.931972 758.933507 831.090665 512.000512 831.090665zM512.000512-3.476939c-213.646891 0-387.478985 173.828001-387.478985 387.476939 0 213.646891 173.832094 387.475915 387.478985 387.475915 213.647915 0 387.474892-173.830047 387.474892-387.475915C899.476427 170.353109 725.648426-3.476939 512.000512-3.476939zM159.919734 411.628244l55.255465 0 0-55.256488-55.255465 0 0 55.256488ZM807.639812 411.629267l55.256488 0 0-55.256488-55.256488 0 0 55.256488ZM484.370221 731.471806l55.256488 0 0-55.256488-55.256488 0 0 55.256488ZM484.370221 642.44826l55.256488 0 0-286.079574-55.256488 0 0 286.079574ZM682.960649 235.32724l-39.071863-39.071863-159.509552 159.509552 39.071863 39.071863 159.509552-159.509552ZM484.371244 93.472114l55.256488 0 0-55.256488-55.256488 0 0 55.256488Z"  horiz-adv-x="1024" />

    
    <glyph glyph-name="praise" unicode="&#59162;" d="M819.36 456.416l-75.904-354.176c-0.576-2.688-5.088-6.24-7.296-6.24L352 96.16V480h2.88v1.056A176.224 176.224 0 0 1 512 656V672a32.032 32.032 0 0 0 64 0h2.048c6.336-32.8 11.968-106.496-23.872-139.904A32 32 0 0 1 576 476.672c4.64 0 9.152 1.344 13.44 3.328h210.24c7.424 0 13.376-2.336 16.832-6.592 3.296-4.096 4.32-10.144 2.848-16.992zM192.192 480H288v-383.808H192L192.192 480z m674.08 33.664c-15.584 19.296-39.872 30.336-66.592 30.336h-164.992c23.168 67.2 5.376 145.024 4.352 149.312a30.944 30.944 0 0 1-4.928 10.656 95.808 95.808 0 0 1-90.112 64 95.84 95.84 0 0 1-95.456-90.688H448V656c0-61.76-50.24-112-112-112H192.192C156.8 544 128 515.2 128 479.776v-383.552C128 60.8 156.64 32 191.84 32h544.32c32.352 0 63.04 24.96 69.888 56.8l75.904 354.208c5.504 25.76-0.192 51.488-15.68 70.656z"  horiz-adv-x="1024" />

    
    <glyph glyph-name="bell" unicode="&#58928;" d="M432.426667 798.890667a85.333333 85.333333 0 0 0 159.146666-0.085334C715.178667 762.752 810.666667 642.56 810.666667 469.333333c0-112 22.698667-175.018667 64.64-220.885333 10.410667-11.349333 46.976-44.288 51.072-48.426667l12.288-12.458666v-145.493334h-261.376a168.149333 168.149333 0 0 0-76.202667-102.784 171.008 171.008 0 0 0-178.176 0c-44.458667 27.136-69.034667 57.472-77.824 102.784H85.333333v145.493334l12.288 12.458666c4.437333 4.48 40.789333 37.12 51.114667 48.341334C190.677333 293.973333 213.333333 356.949333 213.333333 469.333333c0 173.653333 95.36 293.632 219.093334 329.557334z m1.877333-756.821334c5.973333-11.221333 16.298667-19.669333 33.066667-29.909333 27.392-16.725333 61.866667-16.725333 89.258666 0 12.672 7.722667 22.613333 17.962667 29.44 29.866667H434.346667zM853.333333 151.381333c-12.714667 11.733333-32 29.653333-40.96 39.466667C755.456 253.013333 725.333333 336.768 725.333333 469.333333c0 160.810667-99.84 255.488-213.333333 255.488-113.792 0-213.333333-94.208-213.333333-255.488 0-133.034667-30.122667-216.746667-87.125334-278.741333-8.96-9.728-28.245333-27.648-40.874666-39.253333v-23.936h682.666666v23.978666z"  horiz-adv-x="1024" />

    
    <glyph glyph-name="time" unicode="&#58962;" d="M512 832C264.58 832 64 631.42 64 384s200.58-448 448-448 448 200.58 448 448S759.42 832 512 832z m0-832c-211.74 0-384 172.26-384 384s172.26 384 384 384 384-172.26 384-384-172.26-384-384-384zM544 397.53V640a32 32 0 0 1-64 0v-256a31.58 31.58 0 0 1 10.93-23.68c0.31-0.34 0.41-0.79 0.75-1.12l135.69-135.69a32 32 0 0 1 45.32 45.32z"  horiz-adv-x="1024" />

    
    <glyph glyph-name="location" unicode="&#59247;" d="M512 832c-172.3 0-312-139.7-312-312 0-139.8 205.3-437 282.8-544.3 7.2-9.9 18.2-14.9 29.2-14.9s22 5 29.2 14.9C618.7 83 824 380.2 824 520c0 172.3-139.7 312-312 312z m0-424c-64.1 0-116 51.9-116 116s51.9 116 116 116 116-51.9 116-116-51.9-116-116-116z"  horiz-adv-x="1024" />

    
    <glyph glyph-name="kehuchazhong" unicode="&#58978;" d="M907.636364 849.454545H605.090909a69.818182 69.818182 0 0 1-69.818182-69.818181v-81.454546a34.909091 34.909091 0 0 1 69.818182 0V779.636364h302.545455v-791.272728H605.090909V535.272727a34.909091 34.909091 0 0 1-69.818182 0V-81.454545h372.363637a69.818182 69.818182 0 0 1 69.818181 69.818181V779.636364a69.818182 69.818182 0 0 1-69.818181 69.818181m-221.090909-418.90909h139.636363a34.909091 34.909091 0 0 1 0 69.818181h-139.636363a34.909091 34.909091 0 0 1 0-69.818181m46.545454-146.292364v-219.415273c0-16.546909 15.639273-29.928727 34.909091-29.928727s34.909091 13.381818 34.909091 29.928727v219.415273c0 16.546909-15.639273 29.928727-34.909091 29.928727s-34.909091-13.381818-34.909091-29.928727M686.545455 616.727273h139.636363a34.909091 34.909091 0 0 1 0 69.818182h-139.636363a34.909091 34.909091 0 0 1 0-69.818182m-349.09091 69.818182h-139.636363a34.909091 34.909091 0 0 1 0-69.818182h139.636363a34.909091 34.909091 0 0 1 0 69.818182M418.909091 849.454545H116.363636a69.818182 69.818182 0 0 1-69.818181-69.818181v-791.272728a69.818182 69.818182 0 0 1 69.818181-69.818181h372.363637V535.272727a34.909091 34.909091 0 0 1-69.818182 0V-11.636364H116.363636V779.636364h302.545455v-81.454546a34.909091 34.909091 0 0 1 69.818182 0V779.636364a69.818182 69.818182 0 0 1-69.818182 69.818181m-174.545455-565.201454v-219.415273c0-16.546909 15.639273-29.928727 34.909091-29.928727s34.909091 13.381818 34.909091 29.928727v219.415273c0 16.546909-15.639273 29.928727-34.909091 29.928727s-34.909091-13.381818-34.909091-29.928727M372.363636 465.454545a34.909091 34.909091 0 0 1-34.909091 34.909091h-139.636363a34.909091 34.909091 0 0 1 0-69.818181h139.636363a34.909091 34.909091 0 0 1 34.909091 34.90909"  horiz-adv-x="1024" />

    
    <glyph glyph-name="-task" unicode="&#58886;" d="M896 768H746.67V810.67c0 23.57-19.11 42.67-42.67 42.67H320c-23.57 0-42.67-19.11-42.67-42.67v-42.66H128c-23.57 0-42.67-19.11-42.67-42.67v-768c0-23.57 19.11-42.67 42.67-42.67h768c23.56 0 42.67 19.1 42.67 42.66v768c0 23.57-19.11 42.67-42.67 42.67z m-533.33 0h298.67v-42.26c0-0.13-0.01-0.26-0.01-0.4s0.01-0.26 0.01-0.4v-42.27H362.67V768z m490.67-768H170.67V682.67h106.66V640c0-23.57 19.11-42.67 42.67-42.67h384c23.56 0 42.67 19.11 42.67 42.67v42.67h106.67V0zM652.5 478.17L469.32 295.01l-97.83 97.82c-16.64 16.67-43.68 16.67-60.33 0-16.67-16.65-16.67-43.67 0-60.33l128-128c8.33-8.33 19.25-12.5 30.17-12.5 10.92 0 21.85 4.17 30.17 12.5l213.33 213.34c16.67 16.65 16.67 43.67 0 60.33-16.64 16.67-43.68 16.67-60.33 0z"  horiz-adv-x="1024" />

    
    <glyph glyph-name="More" unicode="&#59048;" d="M512 453.290667a69.290667 69.290667 0 1 0 0-138.581334 69.290667 69.290667 0 0 0 0 138.581334z m256 0a69.290667 69.290667 0 1 0 0-138.581334 69.290667 69.290667 0 0 0 0 138.581334z m-512 0a69.290667 69.290667 0 1 0 0-138.581334 69.290667 69.290667 0 0 0 0 138.581334z"  horiz-adv-x="1024" />

    
    <glyph glyph-name="down-arrow" unicode="&#58892;" d="M957.463608 569.391361L541.393447 142.01775999999995l0 0-29.720905-30.527271-29.718859 30.527271 0 0L65.883523 569.391361l29.718859 30.525224 416.07016-427.370531 416.07016 427.370531L957.463608 569.391361z"  horiz-adv-x="1024" />

    
    <glyph glyph-name="follow" unicode="&#58903;" d="M511.998976 810.610688c31.413248 0 56.882176-25.468928 56.882176-56.881152l0-739.460096c0-31.413248-25.468928-56.882176-56.882176-56.882176-31.412224 0-56.881152 25.468928-56.881152 56.882176l0 739.460096C455.117824 785.142784 480.586752 810.610688 511.998976 810.610688zM938.610688 384c0-31.413248-25.468928-56.882176-56.882176-56.882176l-739.460096 0c-31.412224 0-56.881152 25.468928-56.881152 56.882176 0 31.412224 25.468928 56.881152 56.881152 56.881152l739.460096 0C913.14176 440.881152 938.610688 415.412224 938.610688 384z"  horiz-adv-x="1024" />

    
    <glyph glyph-name="iconmore-copy" unicode="&#58926;" d="M120-40.256c-10.304 0-20.608 3.904-28.416 11.776-15.744 15.68-15.744 41.152 0 56.896l355.52 355.584-355.52 355.52c-15.744 15.68-15.744 41.152 0 56.896 15.68 15.744 41.152 15.744 56.896 0l384-384c15.744-15.68 15.744-41.152 0-56.896l-384-384c-7.872-7.872-18.176-11.776-28.48-11.776zM520-40.256c-10.304 0-20.608 3.904-28.416 11.776-15.744 15.68-15.744 41.152 0 56.896l355.52 355.584-355.52 355.52c-15.744 15.68-15.744 41.152 0 56.896 15.68 15.744 41.152 15.744 56.896 0l384-384c15.744-15.68 15.744-41.152 0-56.896l-384-384c-7.872-7.872-18.176-11.776-28.48-11.776z"  horiz-adv-x="1024" />

    
    <glyph glyph-name="task" unicode="&#59438;" d="M170.666667 0a42.666667 42.666667 0 0 1 42.666666-42.666667h597.333334a42.666667 42.666667 0 0 1 42.666666 42.666667V682.666667a42.666667 42.666667 0 0 1-42.666666 42.666666h-128V768a42.666667 42.666667 0 0 1-42.666667 42.666667H384a42.666667 42.666667 0 0 1-42.666667-42.666667v-42.666667H213.333333a42.666667 42.666667 0 0 1-42.666666-42.666666v-682.666667z m256 725.333333h170.666666v-85.333333h-170.666666V725.333333zM256 640h85.333333v-42.666667a42.666667 42.666667 0 0 1 42.666667-42.666666h256a42.666667 42.666667 0 0 1 42.666667 42.666666V640h85.333333v-597.333333H256V640zM469.12 316.629333l-55.168 55.125334-60.330667-60.330667 115.413334-115.370667 201.088 200.405334-60.245334 60.416z"  horiz-adv-x="1024" />

    
    <glyph glyph-name="tel" unicode="&#58933;" d="M762 332c-68.5 0-130.5-34.5-166.6-91.4-118 14.9-211.2 110.8-222.7 229.3C427 506.5 460 567.5 460 634c0 109.2-88.9 198-198 198-109.2 0-198-88.8-198-198 0-369.3 389.6-698 696.8-698h1.3c109.1 0.3 197.9 89.1 197.9 198 0 109.1-88.8 198-198 198z m-0.1-332h-1.1C485.9 0 128 309.2 128 634c0 72.1 61.9 134 134 134s134-61.9 134-134c0-48.9-22.2-95.3-65.6-117.9l-20.5-11.6 0.5-16.9c3.7-169.3 131.1-306 300.2-313.8h21.1l7.7 17c22 45.6 72.1 77.2 122.6 77.2 72.1 0 134-61.9 134-134 0-71.9-61.9-133.8-134.1-134z"  horiz-adv-x="1024" />

    
    <glyph glyph-name="paixu" unicode="&#58988;" d="M375-2c-19.8 0-36 16.2-36 36V734c0 19.8 16.2 36 36 36s36-16.2 36-36v-700c0-19.8-16.2-36-36-36zM398.2 6.4c-15.2-12.7-38-10.7-50.7 4.4L136.6 262.1c-12.7 15.2-10.7 38 4.4 50.7 15.2 12.7 38 10.7 50.7-4.4l210.8-251.3c12.8-15.2 10.8-38-4.3-50.7zM649 770c19.8 0 36-16.2 36-36v-700c0-19.8-16.2-36-36-36s-36 16.2-36 36V734c0 19.8 16.2 36 36 36zM625.8 761.6c15.2 12.7 38 10.7 50.7-4.4l210.8-251.3c12.7-15.2 10.7-38-4.4-50.7-15.2-12.7-38-10.7-50.7 4.4L621.4 710.9c-12.7 15.2-10.7 38 4.4 50.7z"  horiz-adv-x="1024" />

    
    <glyph glyph-name="shaixuan" unicode="&#59018;" d="M965.34016 781.21472c-14.0032 30.85312-44.82048 50.78528-78.50496 50.78528l-744.22272 0.01024a82.9184 82.9184 0 0 1-76.4928-50.70336c-13.79328-32.0768-7.40352-68.10112 16.5888-92.11904l2.64192-3.16928 274.79552-220.2368a23.76192 23.76192 0 0 0 9.26208-18.38592v-377.83552a84.13184 84.13184 0 0 1 44.63104-75.01824l118.96832-66.27328c13.12256-6.85056 26.64448-10.17856 41.32352-10.17856h0.06656c23.30624 0 45.00992 8.9856 61.11744 25.30304 15.85664 16.06144 24.4224 37.48352 24.12544 60.39552V445.04576a24.36608 24.36608 0 0 0 8.5248 18.304l278.7072 222.83264 3.29728 3.22048a83.57376 83.57376 0 0 1 15.17056 91.81184z m-60.0576-48.20992l-0.38912-0.52736-275.25632-221.55264c-20.10112-16.20992-31.62112-40.4736-31.62112-66.57024v-440.56064c0.0256-8.29952-4.352-16.1536-11.84256-20.72576a26.66496 26.66496 0 0 0-11.77088-2.75456 23.92064 23.92064 0 0 0-11.52 2.85696l-118.89664 65.05472c-7.30112 3.60448-11.84256 11.56608-11.84256 20.78208V446.7968c0 25.81504-11.74016 50.048-32.19968 66.48832L134.13376 725.46816l-9.32352 7.6288c-5.15584 7.28064-5.74464 16.68608-1.68448 24.2176 3.72224 8.26368 11.52 13.19424 20.85888 13.19424H886.784a23.26016 23.26016 0 0 0 20.76672-13.04576 23.5008 23.5008 0 0 0-2.26816-24.45824zM748.20608 90.30656c-16.34816 0.4352-29.50656 14.18752-29.18912 30.67904 0 17.03424 13.09696 30.81728 29.18912 30.81728h195.4048c16.09728 0 29.18912-13.77792 29.18912-30.71488a29.6192 29.6192 0 0 0-8.064-21.4272 29.50656 29.50656 0 0 0-20.736-9.33888l-0.38912-0.01536h-195.4048zM748.20608 228.08064c-16.32256 0.42496-29.47072 14.16704-29.18912 30.6176 0 17.05984 13.09696 30.86336 29.18912 30.86336h195.4048c16.09728 0 29.18912-13.80352 29.18912-30.77632a29.31712 29.31712 0 0 0-7.79776-21.29408 29.22496 29.22496 0 0 0-20.44416-9.39008l-0.9472-0.0256h-195.4048zM748.20608 365.8496c-16.32256 0.42496-29.47072 14.16704-29.18912 30.62272 0 17.024 13.09696 30.7968 29.18912 30.7968h195.4048c16.09728 0 29.18912-13.7728 29.18912-30.70976 0.3072-8.04352-2.46272-15.53408-7.79776-21.29408s-12.5952-9.09312-20.44416-9.3952l-0.98816-0.02048h-195.36384z"  horiz-adv-x="1024" />

    
    <glyph glyph-name="arrows_left" unicode="&#59041;" d="M578.336 667.312L304 395.312v-22.624l274.336-272 23.808 22.624L342.032 384l259.808 260.688z"  horiz-adv-x="1024" />

    
    <glyph glyph-name="arrows_right" unicode="&#59047;" d="M720 395.312l-274.336 272-23.808-22.624L681.968 384 420.992 123.312l24.816-22.624 274.192 272z"  horiz-adv-x="1024" />

    
    <glyph glyph-name="clear" unicode="&#58931;" d="M987.428571 627.809524h-950.857142a36.571429 36.571429 0 0 0 0 73.142857H243.809524V822.857143a73.142857 73.142857 0 0 0 73.142857 73.142857h390.095238a73.142857 73.142857 0 0 0 73.142857-73.142857v-121.904762h207.238095a36.571429 36.571429 0 0 0 0-73.142857zM707.047619 774.095238a48.761905 48.761905 0 0 1-48.761905 48.761905H365.714286a48.761905 48.761905 0 0 1-48.761905-48.761905v-73.142857h390.095238V774.095238zM341.333333 79.238095v390.095238a36.571429 36.571429 0 0 0 73.142857 0v-390.095238a36.571429 36.571429 0 0 0-73.142857 0z m268.190477 0v390.095238a36.571429 36.571429 0 0 0 73.142857 0v-390.095238a36.571429 36.571429 0 0 0-73.142857 0zM158.47619 579.047619a36.254476 36.254476 0 0 0 34.133334-24.380952H195.047619v-560.761905a48.761905 48.761905 0 0 1 48.761905-48.761905h536.380952a48.761905 48.761905 0 0 1 48.761905 48.761905V554.666667h2.438095a36.059429 36.059429 0 0 0 68.266667 0h2.438095v-609.52381a73.142857 73.142857 0 0 0-73.142857-73.142857H195.047619a73.142857 73.142857 0 0 0-73.142857 73.142857V554.666667h2.438095a36.254476 36.254476 0 0 0 34.133333 24.380952z"  horiz-adv-x="1024" />

    
    <glyph glyph-name="setup" unicode="&#58885;" d="M676.61 43.610000000000014H347.38a55.262 55.262 0 0 0-47.86 27.63L134.9 356.37a55.285 55.285 0 0 0 0 55.27l164.62 285.13a55.262 55.262 0 0 0 47.86 27.63h329.23c19.74 0 37.99-10.53 47.86-27.63L889.1 411.63a55.285 55.285 0 0 0 0-55.27L724.48 71.24000000000001a55.278 55.278 0 0 0-47.87-27.63z m-297.32 55.26h265.42c19.74 0 37.99 10.53 47.86 27.63l132.71 229.86a55.285 55.285 0 0 1 0 55.27L692.57 641.49a55.262 55.262 0 0 1-47.86 27.63H379.29a55.262 55.262 0 0 1-47.86-27.63L198.72 411.63a55.285 55.285 0 0 1 0-55.27L331.43 126.5a55.27 55.27 0 0 1 47.86-27.63zM512 241.07000000000005c-78.81 0-142.93 64.12-142.93 142.93S433.19 526.9300000000001 512 526.9300000000001 654.93 462.81 654.93 384 590.81 241.07000000000005 512 241.07000000000005z m0 230.59c-48.34 0-87.66-39.32-87.66-87.66s39.32-87.66 87.66-87.66 87.66 39.32 87.66 87.66-39.33 87.66-87.66 87.66z"  horiz-adv-x="1024" />

    
    <glyph glyph-name="search" unicode="&#58899;" d="M662.635 435.437q0 87.1-61.912 149.013t-149.013 61.912-149.013-61.912-61.912-149.013 61.912-149.013 149.013-61.912 149.013 61.912 61.912 149.013zM903.69 43.722q0-24.482-17.891-42.373t-42.373-17.891q-25.424 0-42.373 17.891l-161.488 161.017q-84.276-58.381-187.853-58.381-67.326 0-128.768 26.13t-105.933 70.622-70.622 105.933-26.13 128.768 26.13 128.768 70.622 105.933 105.933 70.622 128.768 26.13 128.767-26.13 105.933-70.622 70.622-105.933 26.13-128.768q0-103.578-58.381-187.853l161.488-161.488q17.421-17.421 17.421-42.373z"  horiz-adv-x="1024" />

    


  </font>
</defs>
</svg>
