<?xml version="1.0" standalone="no"?>
<!DOCTYPE svg PUBLIC "-//W3C//DTD SVG 1.1//EN" "http://www.w3.org/Graphics/SVG/1.1/DTD/svg11.dtd" >
<!--
2013-9-30: Created.
-->
<svg>
<metadata>
Created by iconfont
</metadata>
<defs>

<font id="iconfont" horiz-adv-x="1024" >
  <font-face
    font-family="iconfont"
    font-weight="500"
    font-stretch="normal"
    units-per-em="1024"
    ascent="896"
    descent="-128"
  />
    <missing-glyph />
    
    <glyph glyph-name="shengriliwu" unicode="&#59219;" d="M848.794624-43.156685 571.780416-43.156685 571.780416 242.82877l341.897539 0 0-221.100654C913.677926-13.960704 884.482867-43.156685 848.794624-43.156685zM571.780403 577.256448c-11.861606 3.210138-31.443354 8.36864-39.829709 16.176435-0.596582 0.561766-1.016218 1.246413-1.613824 1.841971-0.560845-0.596582-1.016218-1.280205-1.613824-1.841971-8.386355-7.807795-15.96631-12.965274-27.827917-16.176435l0-263.544325L141.030675 313.712123 141.030675 540.797116c0 35.687834 29.195059 64.882688 64.883302 64.882688l150.649125 0c-16.984474 9.525965-32.846438 20.56233-46.111027 32.932045-60.250624 56.144691-71.129907 137.062605-24.283034 180.767027 19.615539 18.264986 46.252237 27.124736 75.026739 27.124736 39.933133 0 83.972915-17.070797 118.995968-49.706086 20.353331-18.983322 37.722624-43.405619 50.145075-69.056819 12.457267 25.6512 29.791744 50.074419 50.180915 69.056819 35.022029 32.63529 79.062835 49.706086 118.994944 49.706086 28.74071 0 55.410176-8.860774 75.025715-27.124736 46.882611-43.704422 35.96759-124.622336-24.283034-180.767027-13.264589-12.368691-29.127578-23.40608-46.111027-32.932045l144.649234 0c35.688243 0 64.882278-29.195981 64.882278-64.882688l0-227.084948L571.780416 313.712167 571.780416 577.256492zM435.064218 748.374733c-21.476966 19.965747-49.094144 31.913882-73.868288 31.913882-7.404954 0-21.125018-1.211597-29.863322-9.386803-2.000691-1.824563-8.070144-7.439462-8.070144-21.369754 0-15.650406 8.492749-40.24873 32.319386-62.477926 29.124506-27.12576 77.202432-47.601152 111.76704-47.601152 12.176794 0 16.492237 2.666701 16.527053 2.702541C489.524736 653.45495 475.664486 710.546227 435.064218 748.374733zM577.78135 641.209037c0 0 0.034816 0.034816 0.069632 0.034816 0.807424 0 5.50871-1.790771 15.509914-1.790771 34.564608 0 82.64151 20.47529 111.76704 47.601152 23.826637 22.229299 32.283546 46.810112 32.283546 62.442189 0 13.930291-6.033613 19.562496-8.035328 21.404467-8.77312 8.17623-22.457344 9.386803-29.864346 9.386803-24.808038 0-52.390298-11.948134-73.867264-31.913882C585.325466 710.791782 571.358822 654.26135 577.78135 641.209037zM500.89513-43.156685 205.914017-43.156685c-35.688243 0-64.883302 29.195981-64.883302 64.883712L141.030714 242.82877l359.864462 0L500.895177-43.15666z"  horiz-adv-x="1024" />

    
    <glyph glyph-name="shouji" unicode="&#58881;" d="M820.409449 98.771654q0-25.19685-10.07874-46.866142t-27.716535-38.299213-41.322835-26.204724-50.897638-9.574803l-357.795276 0q-27.212598 0-50.897638 9.574803t-41.322835 26.204724-27.716535 38.299213-10.07874 46.866142l0 675.275591q0 25.19685 10.07874 47.370079t27.716535 38.80315 41.322835 26.204724 50.897638 9.574803l357.795276 0q27.212598 0 50.897638-9.574803t41.322835-26.204724 27.716535-38.80315 10.07874-47.370079l0-675.275591zM738.771654 725.669291l-455.559055 0 0-577.511811 455.559055 0 0 577.511811zM510.992126 119.937008q-21.165354 0-36.787402-15.11811t-15.622047-37.291339q0-21.165354 15.622047-36.787402t36.787402-15.622047q22.173228 0 37.291339 15.622047t15.11811 36.787402q0 22.173228-15.11811 37.291339t-37.291339 15.11811zM591.622047 811.338583q0 8.062992-5.03937 12.598425t-11.086614 4.535433l-128 0q-5.03937 0-10.582677-4.535433t-5.543307-12.598425 5.03937-12.598425 11.086614-4.535433l128 0q6.047244 0 11.086614 4.535433t5.03937 12.598425z"  horiz-adv-x="1024" />

    
    <glyph glyph-name="liebiao" unicode="&#58880;" d="M187.392 825.344q28.672 0 48.64-19.456t19.968-48.128l0-52.224q0-28.672-19.968-48.64t-48.64-19.968l-54.272 0q-27.648 0-47.616 19.968t-19.968 48.64l0 52.224q0 28.672 19.968 48.128t47.616 19.456l54.272 0zM889.856 825.344q27.648 0 47.616-19.456t19.968-48.128l0-52.224q0-28.672-19.968-48.64t-47.616-19.968l-437.248 0q-28.672 0-48.64 19.968t-19.968 48.64l0 52.224q0 28.672 19.968 48.128t48.64 19.456l437.248 0zM187.392 506.88q28.672 0 48.64-19.968t19.968-48.64l0-52.224q0-27.648-19.968-47.616t-48.64-19.968l-54.272 0q-27.648 0-47.616 19.968t-19.968 47.616l0 52.224q0 28.672 19.968 48.64t47.616 19.968l54.272 0zM889.856 506.88q27.648 0 47.616-19.968t19.968-48.64l0-52.224q0-27.648-19.968-47.616t-47.616-19.968l-437.248 0q-28.672 0-48.64 19.968t-19.968 47.616l0 52.224q0 28.672 19.968 48.64t48.64 19.968l437.248 0zM187.392 187.392q28.672 0 48.64-19.968t19.968-47.616l0-52.224q0-28.672-19.968-48.64t-48.64-19.968l-54.272 0q-27.648 0-47.616 19.968t-19.968 48.64l0 52.224q0 27.648 19.968 47.616t47.616 19.968l54.272 0zM889.856 187.392q27.648 0 47.616-19.968t19.968-47.616l0-52.224q0-28.672-19.968-48.64t-47.616-19.968l-437.248 0q-28.672 0-48.64 19.968t-19.968 48.64l0 52.224q0 27.648 19.968 47.616t48.64 19.968l437.248 0z"  horiz-adv-x="1024" />

    
    <glyph glyph-name="gouwucheman" unicode="&#58882;" d="M346.112 89.088q19.456 0 36.864-7.168t30.208-19.968 20.48-30.208 7.68-36.864-7.68-36.864-20.48-30.208-30.208-20.48-36.864-7.68q-20.48 0-37.888 7.68t-30.208 20.48-20.48 30.208-7.68 36.864 7.68 36.864 20.48 30.208 30.208 19.968 37.888 7.168zM772.096 87.04q19.456 0 37.376-7.168t30.72-19.968 20.48-30.208 7.68-36.864-7.68-36.864-20.48-30.208-30.72-20.48-37.376-7.68-36.864 7.68-30.208 20.48-20.48 30.208-7.68 36.864 7.68 36.864 20.48 30.208 30.208 19.968 36.864 7.168zM944.128 668.672q28.672 0 44.544-7.68t22.528-18.944 6.144-24.064-3.584-22.016-13.312-37.888-22.016-62.976-23.552-68.096-18.944-53.248q-13.312-40.96-33.28-56.832t-49.664-15.872l-35.84 0-65.536 0-86.016 0-96.256 0-253.952 0 14.336-92.16 517.12 0q49.152 0 49.152-41.984 0-20.48-9.728-35.328t-38.4-14.848l-49.152 0-94.208 0-118.784 0-119.808 0-99.328 0-55.296 0q-20.48 0-34.304 9.216t-23.04 24.064-14.848 32.256-8.704 32.768q-1.024 6.144-5.632 29.696t-11.264 58.88-14.848 78.848-16.384 87.552q-19.456 103.424-44.032 230.4l-76.8 0q-15.36 0-25.6 7.68t-16.896 18.432-9.216 23.04-2.56 22.528q0 20.48 13.824 33.792t37.376 13.312l21.504 0 21.504 0 25.6 0 34.816 0q20.48 0 32.768-6.144t19.456-15.36 10.24-19.456 5.12-17.408q2.048-8.192 4.096-23.04t4.096-30.208q3.072-18.432 6.144-38.912l700.416 0zM867.328 701.44l-374.784 0 135.168 135.168q23.552 23.552 51.712 24.064t51.712-23.04z"  horiz-adv-x="1024" />

    
    <glyph glyph-name="chuzu" unicode="&#58884;" d="M1025.024 115.712l-128 0 0-59.392q0-26.624-18.432-45.056t-45.056-18.432l-64.512 0q-26.624 0-45.056 18.432t-18.432 45.056l0 59.392-384 0 0-59.392q0-26.624-18.944-45.056t-45.568-18.432l-64.512 0q-26.624 0-45.056 18.432t-18.432 45.056l0 59.392-129.024 0 0 201.728q0 57.344 36.352 89.088t91.648 35.84q4.096 17.408 12.8 47.104t18.432 64 20.48 68.608 19.968 60.928q27.648 77.824 115.712 77.824l397.312 0q39.936 0 65.536-22.016t35.84-51.712l21.504-63.488q11.264-34.816 23.04-69.632t22.016-65.024 16.384-46.592q55.296-5.12 91.648-36.864t36.352-88.064l0-201.728zM125.952 247.808q26.624 0 45.568 18.432t18.944 45.056-18.944 45.568-45.568 18.944-45.056-18.944-18.432-45.568 18.432-45.056 45.056-18.432zM793.6 441.344l-37.888 187.392-487.424 0-33.792-187.392 559.104 0zM896 247.808q26.624 0 46.08 19.456t19.456 46.08q0 27.648-19.456 46.592t-46.08 18.944q-27.648 0-46.592-18.944t-18.944-46.592q0-26.624 18.944-46.08t46.592-19.456z"  horiz-adv-x="1026" />

    
    <glyph glyph-name="zuanshi" unicode="&#58885;" d="M321.214785 504.1998l455.224775 2.045954-218.917083-550.361638zM373.386613 703.68032l346.789211-3.068931 61.378621-134.00999-450.10989 3.068931zM274.157842 573.762238l-274.157842 114.573427 147.308691 109.458541 175.952048-91.044955zM0 621.842158l259.836164-115.596404 279.272727-546.26973zM841.91009 507.268731l243.468531 125.826174-512.511489-670.04995zM836.795205 574.785215l-68.539461 141.170829 156.515485 86.953047 135.032967-113.55045zM368.271728 771.196803l-59.332667 15.344655-111.504496 62.401598 130.941059 47.056943 427.604396 0 129.918082-54.217782-124.803197-60.355644-41.942058-10.22977-350.881119 0z"  horiz-adv-x="1086" />

    
    <glyph glyph-name="xiexiangbao" unicode="&#58886;" d="M361.503846 513.171968c0-27.324314-22.143181-49.468621-49.468621-49.468621-27.317248 0-49.470669 22.144307-49.470669 49.468621 0 27.315098 22.153421 49.467597 49.470669 49.467597C339.360666 562.639565 361.503846 540.487066 361.503846 513.171968M361.503846 513.171968c0-27.324314-22.143181-49.468621-49.468621-49.468621-27.317248 0-49.470669 22.144307-49.470669 49.468621 0 27.315098 22.153421 49.467597 49.470669 49.467597C339.360666 562.639565 361.503846 540.487066 361.503846 513.171968M796.873011 513.171968c0-27.324314-22.144205-49.468621-49.469645-49.468621-27.317248 0-49.469645 22.144307-49.469645 49.468621 0 27.315098 22.151373 49.467597 49.469645 49.467597C774.728806 562.639565 796.873011 540.487066 796.873011 513.171968M852.259635-43.328614 199.206993-43.328614c-55.014195 0-99.772314 44.763546-99.772314 99.769242l0 507.918032c0 55.009894 44.758221 99.76617 99.772314 99.76617l653.052677 0c55.014195 0 99.77129-44.756378 99.77129-99.76617l0-507.918032C952.031027 1.434931 907.27383-43.328614 852.259635-43.328614zM199.207014 609.706598c-25.004442 0-45.350707-20.346368-45.350707-45.34784l0-507.918032c0-24.997274 20.346163-45.349888 45.350707-45.349888l653.052677 0c25.004442 0 45.350707 20.353536 45.350707 45.349888l0 507.918032c0 25.002394-20.347187 45.34784-45.350707 45.34784L199.206993 609.706598zM770.627174 519.00887l-54.42063 0L716.206544 745.755114c0 25.002394-20.347187 45.34784-45.350707 45.34784L380.610799 791.102954c-25.004442 0-45.350707-20.346368-45.350707-45.34784l0-226.746234-54.42063 0L280.839462 745.755114c0 55.009894 44.757197 99.767194 99.772314 99.767194L670.855865 845.522308c55.014195 0 99.77129-44.756378 99.77129-99.767194L770.627154 519.00888z"  horiz-adv-x="1024" />

    
    <glyph glyph-name="jingxuanshichang" unicode="&#58887;" d="M627.977626 476.225434c119.09417-1.609626 238.185267-3.234714 357.295821-4.859699-4.320563 15.968666-8.659558 31.970099-12.985242 47.956173-94.425395-72.591258-188.872192-145.212314-283.298611-217.802547-9.083187-6.970778-15.551795-17.022669-11.830886-29.056819 35.275878-113.777357 70.511718-227.553587 105.774285-341.313536 12.613837 9.670246 25.217331 19.389645 37.817856 29.076173-98.232218 67.357082-196.461363 134.754099-294.693581 202.115277-6.971085 4.792115-19.035341 4.890419-25.973555 0L208.141824-43.727667c12.618957-9.687654 25.200947-19.373261 37.821952-29.057843 33.73056 114.214298 67.447808 228.459213 101.16311 342.70423 3.554099 11.964518-2.581914 22.152499-11.829862 29.056819-95.382221 71.316275-190.799155 142.631526-286.198784 213.963059-4.321587-16.00041-8.661606-31.986483-12.985242-47.956173 119.059354 3.234714 238.11881 6.450893 357.196595 9.669222 12.030464 0.334643 21.047194 7.725978 24.833638 18.90048 38.34071 112.771379 76.697907 225.542861 115.056026 338.296832l-49.636478 0c39.850189-112.235213 79.714714-224.469402 119.579238-336.723046 11.026534-31.032832 60.796109-17.659187 49.634406 13.689754-39.846093 112.235213-79.728026 224.47145-119.57719 336.723046-8.614502 24.230912-41.238835 24.733286-49.636454 0-38.35607-112.771379-76.713267-225.541837-115.052954-338.295808 8.260506 6.283059 16.522957 12.582605 24.80087 18.884096-119.077786-3.21833-238.137242-6.434509-357.196595-9.668198-27.38176-0.753152-32.77783-33.195008-13.003674-47.974605 95.414886-71.315251 190.831923-142.630502 286.212096-213.945651-3.9552 9.684582-7.874662 19.371213-11.830886 29.055795-33.732608-114.247066-67.446784-228.458189-101.179494-342.70423-6.049997-20.51113 18.950349-42.393498 37.80352-29.072179 97.058406 68.499046 194.083123 136.983859 291.10569 205.485978-15.284736-10.792858-34.48576 7.003546-12.482765-8.079053 11.142246-7.640986 22.268006-15.282074 33.380557-22.919987 33.763328-23.160525 67.547136-46.316851 101.29408-69.476352 49.132954-33.679053 98.231194-67.35913 147.331379-101.074022 18.783539-12.868096 44.272128 8.344064 37.83936 29.087437-35.254374 113.779405-70.532198 227.520922-105.772237 341.297152-3.956224-9.685606-7.909478-19.371213-11.84727-29.054771 94.426419 72.58921 188.871168 145.194906 283.312947 217.800499 19.222528 14.779597 14.782259 47.586816-13.00265 47.956173-119.110554 1.62601-238.202675 3.250995-357.295821 4.860723C594.746368 528.15319 594.798592 476.677734 627.977626 476.225434"  horiz-adv-x="1024" />

    
    <glyph glyph-name="zhubaoshipin" unicode="&#58888;" d="M1012.57943 562.748006c-62.384333 88.706355-124.767642 177.45152-187.152998 266.178355-5.558784 8.773837-15.641907 14.997606-25.990963 14.997606L495.866405 843.923968l-18.858259 0L201.107351 843.923968c-9.274573 0-16.29993-3.475149-21.120922-8.724685-0.16169-0.164762-0.323379-0.333619-0.483021-0.504525-0.06144-0.07168-0.12585-0.140186-0.188314-0.211866-1.45623-1.581056-2.828493-3.362611-4.073984-5.388698-54.667264-88.779981-109.310976-177.584538-163.970048-266.345165-7.069286-11.485594-4.575437-25.068954 3.217408-34.304307 0.464589-0.687616 0.94761-1.365094 1.465446-2.026189 154.743501-197.936026 309.473792-395.920282 464.213197-593.852211 6.764339-8.662323 15.009485-11.38432 22.812467-10.174771 6.765363-0.012288 13.679104 2.960384 19.571507 10.174771 161.764762 197.93193 323.560141 395.916186 485.335142 593.851187 0.834048 1.021235 1.581056 2.08343 2.281062 3.165082C1017.662362 538.854912 1020.189082 551.915315 1012.57943 562.748006zM929.086464 577.598259 744.622891 577.598259c21.073818 57.48521 42.142515 114.973594 63.218381 172.458803C848.254259 692.574925 888.668365 635.087667 929.086464 577.598259zM501.32183 769.906176c43.903693-64.093798 87.80329-128.202854 131.705958-192.307917l-267.452033 0C410.822042 641.70025 456.066355 705.804186 501.32183 769.906176zM658.999398 517.652992c-52.296192-142.656-104.593306-285.313126-156.88233-427.988582-50.849178 143.119565-101.886566 285.876941-154.817229 427.988582L658.999353 517.652992zM689.525862 600.931738c-41.791488 61.008486-83.577856 122.029261-125.367296 183.049011l192.464152 0C734.256333 722.967142 711.891149 661.94432 689.525862 600.931738zM313.535488 607.451238c-22.372454 58.971136-45.141914 117.820416-68.416922 176.530534l193.015737 0C396.601651 725.14263 355.068006 666.29847 313.535488 607.451238zM195.429786 747.561267c22.282342-56.532582 44.095078-113.194086 65.566925-169.961984L90.795539 577.599283C125.679411 634.255667 160.557158 690.910003 195.429786 747.561267zM283.531878 517.652992c54.76137-146.58857 107.453645-293.868954 159.926784-441.528013C328.409805 223.29897 213.365043 370.476032 98.334515 517.652992L283.531902 517.652992zM722.650624 517.652992l201.057207 0C802.169856 368.950272 680.644198 220.246426 559.121613 71.54985 613.623091 220.25257 668.137882 368.95232 722.650624 517.652992z"  horiz-adv-x="1024" />

    
    <glyph glyph-name="jiajujiancai" unicode="&#58889;" d="M174.908621 562.868838c-91.582464 0-166.084301 74.483405-166.084301 166.05399C8.82432 820.493312 83.325133 894.976717 174.908621 894.976717c91.56096 0 166.060749-74.483405 166.060749-166.052966C340.970394 637.352243 266.469581 562.868838 174.908621 562.868838zM174.908621 827.43849c-54.339789 0-98.542285-44.191437-98.542285-98.516787 0-54.326272 44.202496-98.515763 98.542285-98.515763 54.328525 0 98.518733 44.189389 98.518733 98.515763C273.428378 783.247053 229.237146 827.43849 174.908621 827.43849zM509.459558 562.868838c-91.583488 0-166.082253 74.483405-166.082253 166.05399C343.377306 820.493312 417.87607 894.976717 509.459558 894.976717 601.022566 894.976717 675.522355 820.493312 675.522355 728.922726 675.522355 637.352243 601.022566 562.868838 509.459558 562.868838zM509.459558 827.43849c-54.338765 0-98.542285-44.191437-98.542285-98.516787 0-54.326272 44.20352-98.515763 98.542285-98.515763 54.327501 0 98.518733 44.189389 98.518733 98.515763C607.979315 783.247053 563.789107 827.43849 509.459558 827.43849zM844.01152 562.868838c-91.582464 0-166.081229 74.483405-166.081229 166.05399C677.930291 820.493312 752.428954 894.976717 844.01152 894.976717 935.574528 894.976717 1010.075341 820.493312 1010.075341 728.922726 1010.074317 637.352243 935.574528 562.868838 844.01152 562.868838zM844.01152 827.43849c-54.337741 0-98.542285-44.191437-98.542285-98.516787 0-54.326272 44.204544-98.515763 98.542285-98.515763 54.328525 0 98.519757 44.189389 98.519757 98.515763C942.532301 783.247053 898.340045 827.43849 844.01152 827.43849zM174.908621 222.373888c-91.582464 0-166.084301 74.473165-166.084301 166.040678 0 91.570586 74.500813 166.055014 166.084301 166.055014 91.56096 0 166.060749-74.484429 166.060749-166.055014C340.970394 296.847053 266.469581 222.373888 174.908621 222.373888zM174.908621 486.932275c-54.339789 0-98.542285-44.192461-98.542285-98.517811 0-54.324224 44.202496-98.514739 98.542285-98.514739 54.328525 0 98.518733 44.190413 98.518733 98.514739C273.428378 442.740838 229.237146 486.932275 174.908621 486.932275zM509.459558 222.373888c-91.583488 0-166.082253 74.473165-166.082253 166.040678 0 91.570586 74.498765 166.055014 166.082253 166.055014 91.563008 0 166.061773-74.484429 166.061773-166.055014C675.522355 296.847053 601.022566 222.373888 509.459558 222.373888zM509.459558 486.932275c-54.338765 0-98.542285-44.192461-98.542285-98.517811 0-54.324224 44.20352-98.514739 98.542285-98.514739 54.327501 0 98.518733 44.190413 98.518733 98.514739C607.978291 442.740838 563.789107 486.932275 509.459558 486.932275zM844.01152 222.373888c-91.582464 0-166.081229 74.473165-166.081229 166.040678 0 91.570586 74.498765 166.055014 166.081229 166.055014 91.563008 0 166.062797-74.484429 166.062797-166.055014C1010.074317 296.847053 935.574528 222.373888 844.01152 222.373888zM844.01152 486.932275c-54.337741 0-98.542285-44.192461-98.542285-98.517811 0-54.324224 44.204544-98.514739 98.542285-98.514739 54.328525 0 98.519757 44.190413 98.519757 98.514739C942.532301 442.740838 898.340045 486.932275 844.01152 486.932275zM174.908621-118.179328c-91.582464 0-166.084301 74.485453-166.084301 166.079488 0 91.54601 74.500813 166.029414 166.084301 166.029414 91.56096 0 166.060749-74.483405 166.060749-166.029414C340.970394-43.693875 266.469581-118.179328 174.908621-118.179328zM174.908621 146.391347c-54.339789 0-98.542285-44.190413-98.542285-98.493235 0-54.3488 44.202496-98.541363 98.542285-98.541363 54.328525 0 98.518733 44.192461 98.518733 98.541363C273.428378 102.200934 229.237146 146.391347 174.908621 146.391347zM509.459558-118.179328c-91.583488 0-166.082253 74.485453-166.082253 166.079488 0 91.54601 74.498765 166.029414 166.082253 166.029414 91.563008 0 166.061773-74.483405 166.061773-166.029414C675.522355-43.693875 601.022566-118.179328 509.459558-118.179328zM509.459558 146.391347c-54.338765 0-98.542285-44.190413-98.542285-98.493235 0-54.3488 44.20352-98.541363 98.542285-98.541363 54.327501 0 98.518733 44.192461 98.518733 98.541363C607.979315 102.200934 563.789107 146.391347 509.459558 146.391347zM844.01152-118.179328c-91.582464 0-166.081229 74.485453-166.081229 166.079488 0 91.54601 74.498765 166.029414 166.081229 166.029414 91.563008 0 166.062797-74.483405 166.062797-166.029414C1010.074317-43.693875 935.574528-118.179328 844.01152-118.179328zM844.01152 146.391347c-54.337741 0-98.542285-44.190413-98.542285-98.493235 0-54.3488 44.204544-98.541363 98.542285-98.541363 54.328525 0 98.519757 44.192461 98.519757 98.541363C942.532301 102.200934 898.340045 146.391347 844.01152 146.391347z"  horiz-adv-x="1024" />

    
    <glyph glyph-name="jiayongdianqi" unicode="&#58890;" d="M384.277504 871.403827 124.906802 871.403827c-60.50857 0-109.732557-49.232282-109.732557-109.728051l0-738.190579c0-60.478464 49.226138-109.730099 109.732557-109.730099L384.277455-86.244902c60.509594 0 109.734605 49.252762 109.734605 109.731123L494.01206 761.674689C494.014157 822.169498 444.788019 871.403827 384.277504 871.403827zM434.157466 23.485133c0-27.512627-22.375526-49.878016-49.880064-49.878016L124.906802-26.392883c-27.50249 0-49.880064 22.365389-49.880064 49.878016L75.026738 761.674689c0 27.508531 22.378598 49.878016 49.880064 49.878016L384.277455 811.552705c27.505562 0 49.880064-22.368461 49.880064-49.878016L434.157519 23.485133zM903.022899 871.403827 643.651178 871.403827c-60.506522 0-109.733581-49.232282-109.733581-109.728051l0-738.190579c0-60.478464 49.227162-109.730099 109.733581-109.730099L903.022854-86.244902c60.50857 0 109.732557 49.252762 109.732557 109.731123L1012.755411 761.674689C1012.75648 822.169498 963.531366 871.403827 903.022899 871.403827zM952.899789 23.485133c0-27.512627-22.374502-49.878016-49.876992-49.878016L643.651178-26.392883c-27.501466 0-49.87904 22.365389-49.87904 49.878016L593.772138 352.68376l359.128675 0L952.900813 23.485133 952.899789 23.485133zM952.899789 412.533862 593.772167 412.533862 593.772167 761.674689c0 27.508531 22.377574 49.878016 49.87904 49.878016L903.022854 811.552705c27.50249 0 49.876992-22.368461 49.876992-49.878016L952.899846 412.53387zM114.9312 771.648819l279.322829 0 0-59.849114-279.322829 0 0 59.849114ZM114.9312 671.894938l279.322829 0 0-59.850138-279.322829 0 0 59.850138ZM114.9312 572.144026l279.322829 0 0-59.855258-279.322829 0 0 59.855258ZM675.245056 522.265088c-19.298304 0-34.912563-15.644262-34.912563-34.914202s15.614259-34.91113 34.912563-34.91113c19.270656 0 34.913587 15.642214 34.913587 34.91113S694.515712 522.265088 675.245056 522.265088zM675.245056 232.96512c19.270656 0 34.913587 15.66679 34.913587 34.915226 0 19.288269-15.642931 34.913178-34.913587 34.912154-19.298304 0-34.912563-15.625933-34.912563-34.912154C640.332493 248.63191 655.946752 232.96512 675.245056 232.96512z"  horiz-adv-x="1024" />

    
    <glyph glyph-name="shipin1" unicode="&#58891;" d="M7.696589 452.295475 7.696589 276.16297c0-196.998758 175.669965-267.305984 238.954906-286.242304l0-70.669526 533.053853 0 0.002047 0 0 70.505797c63.622554 18.66711 238.95593 88.996966 238.95593 297.104691L1018.663323 452.296479 7.696589 452.295475 7.696589 452.295475zM963.516006 286.861619c0-206.405939-207.478682-246.952448-216.256-248.568218l-22.696858-4.056371 0-59.84397L301.795596-25.606939l-0.055296 59.466342-22.256845 4.362342c-8.850944 1.738547-216.645837 44.730778-216.645837 237.940224l0 29.080316 900.677341 0L963.514959 286.861636zM963.516006 342.011699 62.839715 342.011699l0 55.142901 900.677341 0L963.516006 342.011699 963.516006 342.011699zM430.463181 783.143629l569.815552 0 0-55.142912-569.815552 0 0 55.142912ZM26.076979 783.143629l55.145165 0 0-55.142912-55.145165 0 0 55.142912ZM26.076979 672.860877l55.145165 0 0-55.142912-55.145165 0 0 55.142912ZM430.463181 672.860877l569.815552 0 0-55.142912-569.815552 0 0 55.142912ZM91.54263 475.871437c57.87136 12.311347 78.389453 58.247578 81.384858 83.449549l0.189338 207.162163c0 34.474189 37.983642 44.166963 43.098317 44.230349l-0.008192 55.140864c-33.180058 0-98.231194-30.003302-98.231194-99.371213l0-201.754027c-1.076531-5.339648-7.476531-28.448973-37.904794-34.920346L91.54263 475.871437zM201.829786 475.871437c57.872384 12.311347 78.388429 58.247578 81.385882 83.449549l0.189338 207.162163c0 34.474189 37.984666 44.166963 43.099341 44.230349l-0.009216 55.140864c-33.181082 0-98.234266-30.003302-98.234266-99.371213l0-201.754027c-1.077555-5.339648-7.473562-28.448973-37.902746-34.920346L201.829786 475.871437zM312.114995 475.871437c57.875456 12.311347 78.389453 58.247578 81.38793 83.449549l0.18729 207.162163c0 34.474189 37.982618 44.166963 43.100365 44.230349l-0.009216 55.140864c-33.181082 0-98.233242-30.003302-98.233242-99.371213l0-201.754027c-1.078579-5.339648-7.475507-28.448973-37.902746-34.920346L312.114995 475.871437z"  horiz-adv-x="1024" />

    
    <glyph glyph-name="muyingwanju" unicode="&#58893;" d="M50.372301 468.153651l6.285414-3.78624 468.314803 0L414.971802 825.680486l-0.771584 2.173542c-4.061696 10.095923-26.420838 60.427264-67.221709 60.427264-5.196595 0-10.373632-0.858522-15.388058-2.523443-30.558208-10.166579-33.462477-39.796429-35.024077-55.714918-0.352051-3.606118-0.876032-8.973414-1.570816-12.337971-2.274918 2.138726-4.921242 4.953805-6.794035 6.952346-9.803674 10.46743-23.241216 24.804966-43.771699 24.804966-7.582003 0-14.991053-2.04247-22.023475-6.061056-30.085427-17.180262-24.049664-49.205658-21.139251-64.593101 0.584294-3.134362 1.441894-7.66761 1.768346-11.067085-1.656832 0.601702-3.442586 1.29751-4.878336 1.863475-7.993344 3.133338-17.944371 7.031091-29.718016 7.031091-10.911949 0-26.926285-3.562086-41.255219-20.545946-26.522112-31.431885-5.993779-60.504986 2.781491-72.919757 1.47671-2.095718 3.461939-4.910797 4.75648-7.067955-0.008192-0.008192-0.016384-0.016384-0.024576-0.023552-1.313997 0.342835-3.02295 0.892314-4.302131 1.296486-5.461606 1.73353-12.25257 3.890586-20.393267 3.890586-10.724659 0-26.075955-3.880346-38.312141-22.402253-21.809562-32.985293 3.631821-59.67104 15.85879-72.489984 2.307686-2.421146 5.383885-5.650739 7.522611-8.269312-2.540954-0.08489-6.595482 0.291635-9.943859 0.64471-4.685926 0.479949-9.316557 0.908698-13.754778 0.908698-26.787123 0-39.915725-15.454003-46.210355-28.410061C6.445056 512.732979 29.979034 480.456806 50.372301 468.153651zM72.155238 526.89961c2.445824-0.052224 4.988826-0.352051 7.556403-0.61911 4.75648-0.496333 9.590784-0.943514 14.339174-0.943514 21.088154 0 37.308211 8.783053 48.211968 26.101453 20.487475 32.513536-4.516045 58.735718-16.526029 71.340851-0.472781 0.489165-0.980378 1.020211-1.504358 1.570816 3.614515-0.79104 7.634227-1.36407 11.977216-1.36407 16.273306 0 30.413926 7.743386 42.040115 23.026483 22.049075 29.012787 2.961613 56.04137-5.194547 67.587277-1.79497 2.542899-4.309299 6.104064-5.563904 8.45865 0 0 0.008192 0.007168 0.01536 0.016384 0.800256 0.954778 1.400934 1.511424 1.538048 1.761075 2.179686-0.334643 6.739763-2.11927 9.855898-3.340083 7.710925-3.022848 17.319117-6.792704 28.472627-6.792704 11.549491 0 22.383718 4.147507 31.340032 11.987046 20.580557 18.00407 18.116301 42.104934 15.216128 58.453299 9.898803-10.224845 23.09591-21.652173 42.251981-21.652173 6.636442 0 13.239091 1.467392 19.654451 4.360294 28.824678 13.02569 31.588659 41.211597 33.237299 58.05015 0.224154 2.293248 0.507597 5.168742 0.859648 7.71881 4.85888-4.902707 11.119718-14.569882 14.958285-23.559578l88.884941-291.939021L73.323917 517.121946C71.623066 519.446835 70.670336 522.639565 72.155238 526.89961zM290.993152 55.546368c-48.107622 0-87.253709-39.13431-87.253709-87.230669 0-48.101581 39.145062-87.232717 87.253709-87.232717 48.100454 0 87.236301 39.131238 87.236301 87.232717C378.230477 16.412058 339.095654 55.546368 290.993152 55.546368zM290.993152-66.165658c-19.026125 0-34.497024 15.469363-34.497024 34.480333 0 19.006874 15.471002 34.479309 34.497024 34.479309 19.010765 0 34.482688-15.472435 34.482688-34.479309C325.477888-50.694349 310.003917-66.165658 290.993152-66.165658zM581.142016 55.546368c-48.110694 0-87.254733-39.13431-87.254733-87.230669 0-48.101581 39.144038-87.232717 87.254733-87.232717 48.100454 0 87.238349 39.131238 87.238349 87.232717C668.381389 16.412058 629.24247 55.546368 581.142016 55.546368zM581.142016-66.165658c-19.027149 0-34.499072 15.469363-34.499072 34.480333 0 19.006874 15.472026 34.479309 34.499072 34.479309 19.008717 0 34.480742-15.472435 34.480742-34.479309C615.62368-50.694349 600.151757-66.165658 581.142016-66.165658zM987.765248 774.173389c-38.827827 38.827315-80.482202 56.951091-132.675072 29.880525-32.250778-16.725914-50.118451-62.161715-67.72009-91.311616-53.258138-88.220262-105.474458-177.060659-157.587456-265.957274L32.151551 446.785024l3.134566-29.190861c0.376627-3.582566 42.63168-358.386381 404.164198-358.386381 290.448691 0 378.301133 235.453542 384.186368 359.959245l1.293517 27.620045L690.999449 446.787072c30.138675 51.289088 60.363162 102.520934 90.727014 153.662771 22.986445 38.713754 46.076211 77.385523 69.482291 115.842355 25.002394 41.074483 53.929472 65.922458 99.254579 20.58793C974.539571 712.810803 1011.841638 750.108262 987.765248 774.173389zM439.451238 111.958118c-259.40951 0-329.353318 204.266291-346.576282 282.073293l674.915487 0C755.762074 317.676442 699.237376 111.958118 439.451238 111.958118z"  horiz-adv-x="1024" />

    
    <glyph glyph-name="shumashouji" unicode="&#58894;" d="M751.006515 112.540365 255.109431 112.540365l0 683.977863 495.897106 0L751.006537 112.540402zM306.409882 163.837747l393.297246 0L699.707127 745.220948 306.409873 745.220948 306.409873 163.837718 306.409882 163.837747zM548.413235 28.077773c0-23.175885-18.795827-41.946317-41.964442-41.946317-23.169638 0-41.965466 18.770534-41.965466 41.946317 0 23.176909 18.794803 41.981133 41.965466 41.981133C529.617408 70.05993 548.413235 51.255603 548.413235 28.077773M749.293466-109.751398 256.820469-109.751398c-48.086118 0-87.212749 39.143526-87.212749 87.217459L169.607721 794.807297c0 48.083149 39.126733 87.207219 87.212749 87.207219l492.472983 0c48.086118 0 87.213773-39.125094 87.213773-87.207219l0-817.341267C836.506214-70.607872 797.379584-109.751398 749.293466-109.751398zM256.820429 830.716109c-19.805901 0-35.911373-16.104755-35.911373-35.908813l0-817.341267c0-19.804058 16.106496-35.918029 35.911373-35.918029l492.472983 0c19.805901 0 35.913421 16.112947 35.913421 35.918029L785.206832 794.807297c0 19.804058-16.106496 35.908813-35.913421 35.908813L256.820469 830.716109z"  horiz-adv-x="1024" />

    
    <glyph glyph-name="xiebao" unicode="&#58895;" d="M321.240269 515.606426c0-31.214899-25.295155-56.511078-56.511283-56.511078-31.20599 0-56.513331 25.296179-56.513331 56.511078 0 31.203635 25.306419 56.510054 56.513331 56.510054C295.945114 572.116378 321.240269 546.810061 321.240269 515.606426M321.240269 515.606426c0-31.214899-25.295155-56.511078-56.511283-56.511078-31.20599 0-56.513331 25.296179-56.513331 56.511078 0 31.203635 25.306419 56.510054 56.513331 56.510054C295.945114 572.116378 321.240269 546.810061 321.240269 515.606426M818.587443 515.606426c0-31.214899-25.298227-56.511078-56.513331-56.511078-31.207014 0-56.512307 25.296179-56.512307 56.511078 0 31.203635 25.305395 56.510054 56.512307 56.510054C793.29024 572.116378 818.587443 546.810061 818.587443 515.606426M881.857946-120.115405 135.83923-120.115405c-62.846874 0-113.975398 51.136614-113.975398 113.972736L21.863832 574.079126c0 62.842266 51.128525 113.969664 113.975398 113.969664l746.017715 0c62.84585 0 113.975398-51.127398 113.975398-113.969664l0-580.221778C995.833344-68.97879 944.703795-120.115405 881.857946-120.115405zM135.839232 625.882931c-28.564685 0-51.807027-23.242342-51.807027-51.804877l0-580.221778c0-28.55639 23.243264-51.807949 51.807027-51.807949l746.017715 0c28.565709 0 51.809075 23.252582 51.809075 51.807949L933.666022 574.079126c0 28.562534-23.244288 51.804877-51.809075 51.804877L135.83923 625.884003 135.839232 625.882931zM788.606362 522.274202l-62.169422 0L726.43694 781.299655c0 28.56151-23.244288 51.802829-51.806003 51.802829L343.067226 833.102484c-28.564685 0-51.808051-23.243366-51.808051-51.802829l0-259.024381-62.167375 0L229.0918 781.299655c0 62.841242 51.128525 113.96864 113.975398 113.96864l331.561723 0c62.84585 0 113.975398-51.126374 113.975398-113.96864L788.60432 522.27425z"  horiz-adv-x="1024" />

    
    <glyph glyph-name="nvzhuangneiyi" unicode="&#58896;" d="M661.063475 386.06295l65.152512 241.958707L607.099187 739.89161l-98.497229-73.18784-99.715072 74.983834L290.520371 627.471155l73.224602-241.739674L14.107853 102.489498l142.623027-145.367859 124.071731 107.372442 109.085798-105.506918 122.210304 105.691136 115.165594-106.223309L743.188173 66.753638l112.670618-109.797683 156.235571 144.739533L661.063475 386.06295zM412.677427 680.117146l95.755674-72.019251 95.151923 70.712525 69.995008-65.747456-57.124352-212.164096-208.271811 0-64.436122 212.715725L412.677427 680.117146zM743.877939 131.623014 627.06985 22.495642l-113.960038 105.09353L391.661978 22.576435l-109.09911 105.502822L159.35785 21.471232l-75.594752 77.043712 315.325235 255.451034 227.040016 0 314.340864-254.654874-83.784602-77.609574L743.877939 131.623014zM437.38921 767.259853c12.062208 0 21.823898 9.778688 21.823898 21.825024 0 12.046336-9.76169 21.824102-21.823898 21.824102-12.046848 0-21.809562-9.777664-21.809562-21.824102C415.578624 777.038643 425.342362 767.259853 437.38921 767.259853zM504.995738 767.259853c12.062208 0 21.82185 9.778688 21.82185 21.825024 0 12.046336-9.760666 21.824102-21.82185 21.824102-12.047872 0-21.80137-9.777664-21.80137-21.824102S492.94889 767.259853 504.995738 767.259853zM572.608307 767.259853c12.06528 0 21.823898 9.778688 21.823898 21.825024 0 12.046336-9.760666 21.824102-21.823898 21.824102-12.045824 0-21.808538-9.777664-21.808538-21.824102S560.562483 767.259853 572.608307 767.259853z"  horiz-adv-x="1024" />

    
    <glyph glyph-name="huwaiyundong" unicode="&#58897;" d="M435.084595 84.677837c-26.740122 0-39.900365 6.047744-47.771955 22.177075-3.18976 0.343859-10.957005 0.137114-16.459571-0.497357-12.793856-18.863616-31.691059-21.568205-47.45472-21.568205-5.433958 0-11.502387 0.317235-18.296422 0.690688-4.405555 0.248627-9.142579 0.496333-14.243942 0.68864-30.110003 1.077555-40.929792 14.50025-46.273741 27.41033-3.956224 0.346931-8.796672 0.510669-13.587968 0.470733-10.024755-8.851558-29.357773-17.51081-66.58519-17.828045-0.014336 0-0.028672 0-0.034816 0-26.568192 0-45.382451 6.767104-57.147904 20.104909-3.39753 3.864986-5.813658 7.817011-7.532851 11.626803-21.356237 2.195968-34.943283 6.848-42.663424 10.424422-27.832013 2.80279-34.473574 45.279232-37.421773 91.066061-6.082765 94.159565 51.866317 134.381568 108.123853 140.624794 14.719795 1.63625 32.201728 2.465178 51.955405 2.465178 28.611789 0 53.447475-1.720218 60.50345-2.251264 93.645517 9.975194 272.235213 156.413338 274.485555 244.526182 2.457088 95.766118 69.638861 103.209677 90.17129 103.209677 20.9152 0 39.985254-5.807309 50.845082-11.240038l2.893005-1.457152c18.836787-9.506509 62.955315-31.772672 120.040755-31.772672 20.22441 0 40.441651 2.831462 60.089958 8.409498 23.206502 6.586982 44.39593 9.920922 62.990131 9.920922 39.666995 0 60.759245-14.975078 71.475712-27.533107 12.178842-14.285312 17.432781-33.278976 14.414848-52.111872-3.733197-23.371264-0.57815-47.404646 0.697958-55.414067 30.890803-59.926835 35.137638-124.80553 37.443277-159.941734 0.516813-8.000205 1.168691-17.841357 1.893171-21.408563 13.221683-27.085926 6.419456-124.758426 1.731482-145.415885-6.559642-28.914586-8.664678-46.587085-8.664678-72.799027 0-33.526579-25.6768-48.784077-49.532109-48.784077l-1.525862 0.027648c0.994714-0.234291-159.292314 1.286246-185.536102 1.286246-33.562726 0-48.766669 23.085773-52.122214 35.29175l-0.745984 5.136998-1.215693 54.391808c-2.478592 0.938394-6.59241 2.113126-13.118259 2.996224-23.115366 3.079168-61.88288-24.164352-82.535117-42.502042-23.219814-41.108275-89.356698-50.923827-120.025395-53.272269-12.104192-25.214259-34.260685-25.877402-65.448243-26.814669l-6.876877-0.222106C439.538278 84.704461 437.23264 84.677837 435.084595 84.677837zM424.390656 127.704781c2.574746-0.385741 8.064-0.759296 16.252826-0.526029l6.973133 0.221082c12.428595 0.387789 25.276723 0.774656 28.618957 2.334208-0.199578 0.04096 0.863744 1.961677 2.306662 7.719834l3.956224 15.795712 16.31529 0.262963c27.41033 0.428749 87.761306 9.236378 99.312845 33.789542l1.75401 3.726848 3.015782 2.791629c6.62313 6.144922 70.046106 62.496358 119.696896 55.81312 24.70359-3.342131 40.189952-11.764941 47.344128-25.752474 4.342067-8.478106 4.411699-17.108685 2.61673-23.956582l1.001882-44.518912c1.208525-1.298534 4.14249-3.20297 10.550682-3.20297 26.297958 0 186.66793-1.298534 186.66793-1.298534 0.007168 0 0.02048 0 0.034816 0 7.47049 0 7.47049 2.80279 7.47049 6.349619 0 29.441536 2.450944 50.181939 9.714688 82.186854 5.784986 25.46391 6.324326 100.864205 2.202214 116.12887-4.786176 7.898931-5.455462 18.171904-6.787891 38.539776-2.284134 34.830234-6.104269 93.130035-34.162381 145.842586l-1.464422 2.748621-0.607846 3.058688c-0.303923 1.498112-7.243264 36.991488-1.457254 73.16951 0.61399 3.851674 0.807424 11.301376-4.8128 17.895629-12.530893 14.679347-46.902067 16.708506-90.607206 4.32855-23.412122-6.649446-47.522202-10.024346-71.668122-10.024346-67.178701 0-117.617459 25.447629-139.15177 36.322304l-2.754867 1.380454c-4.673638 2.339328-17.350861 6.765056-31.872205 6.765056-11.418522 0-46.175539 0-47.762739-61.8752-2.845901-111.446221-200.457523-275.59168-314.795213-285.860557l-1.83081-0.158618-1.822618 0.15145c-0.276275 0.021504-27.603763 2.258432-58.949939 2.258432-18.199245 0-34.108211-0.74496-47.274598-2.201088-28.424499-3.155866-75.375718-19.787674-70.466765-95.746662 1.954611-30.393242 5.316301-45.030605 7.463322-51.603251l4.839424-3.505869c-0.006144 0-0.006144 0-0.006144 0 0.13097 0 12.462285-6.794752 43.38688-7.788339l26.761626-0.869786-6.4-22.991667c0.200602-2.677965 9.031066-6.780416 25.201971-6.780416 25.200947 0.20777 35.267686 4.57216 38.42263 6.421197l3.100774 10.051891 14.568346 0.995635c0 0 5.509734 0.372531 13.035418 0.372531 10.218086 0 19.06903-0.678502 26.319462-1.988301 17.661952-3.21833 22.687642-17.715507 24.579789-23.184998 0.172954-0.497357 0.324403-1.034547 0.525005-1.573888 1.172787-0.387789 3.776205-0.994611 8.623718-1.159373 5.391974-0.193434 10.404352-0.469709 15.058534-0.731648 5.931315-0.319283 11.227136-0.621158 15.969382-0.621158 11.48201 0 11.916902 1.021235 14.334054 6.764032l4.364595 10.356838 11.02551 2.208256c1.518694 0.304947 15.286784 2.983936 29.164442 2.983936 13.801882 0 23.668019-2.596147 31.056589-8.11991C419.528704 136.763085 422.615142 131.403981 424.390656 127.704781zM573.974426 431.728026c0-15.22985-12.345651-27.576013-27.576115-27.576013-15.238656 0-27.583283 12.345139-27.583283 27.576013 0 15.230874 12.344627 27.576013 27.583283 27.576013C561.628774 459.304038 573.974426 446.958899 573.974426 431.728026M637.012685 515.780301c0-15.22985-12.343603-27.576013-27.569971-27.576013-15.243776 0-27.588403 12.346163-27.588403 27.576013 0 15.223706 12.343603 27.567821 27.588403 27.567821C624.669082 543.349248 637.012685 531.004109 637.012685 515.780301M494.994534 373.194957c0-15.532749-12.593357-28.132762-28.149248-28.132762-15.541555 0-28.14208 12.600013-28.14208 28.132762 0 15.541965 12.600525 28.141978 28.14208 28.141978C482.401178 401.336832 494.994534 388.737946 494.994534 373.194957"  horiz-adv-x="1036" />

    
    <glyph glyph-name="huazhuangpin1" unicode="&#58898;" d="M681.991987 535.342899 681.991987 670.462291l-1.923891 4.973261C661.103309 724.5184 553.642598 910.584115 458.863206 892.752998c-73.05175-13.626368-81.503539-125.917798-81.503539-209.193472l0-148.220786c-33.87177-17.363456-57.118208-52.618445-57.118208-93.223219l0-456.938963c0-57.730867 46.975795-104.712909 104.716186-104.712909L634.393971-119.536351c57.74039 0 104.716186 46.982042 104.716186 104.712909L739.110157 442.117652C739.111117 482.721382 715.863757 517.976371 681.991987 535.342899zM424.958566 489.714688 634.393971 489.714688c22.984397 0 42.217165-16.380109 46.639104-38.078259l-302.71661 0C382.740378 473.334682 401.97417 489.714688 424.958566 489.714688zM469.342208 836.603187c36.219392 6.778368 124.294861-101.123072 155.531469-176.954163l0-112.817462L434.478821 546.831562 434.478821 683.56061C434.478797 799.243366 456.390758 834.198426 469.342208 836.603187zM681.991987-14.821274c0-26.24983-21.353165-47.596032-47.597978-47.596032L424.958613-62.417306c-26.244813 0-47.597978 21.345178-47.597978 47.596032L377.360636 413.560246l304.632317 0L681.991987-14.821274 681.991987-14.821274z"  horiz-adv-x="1024" />

    
    <glyph glyph-name="qichepeijian" unicode="&#58899;" d="M916.879974 598.629274l1.264858 0L918.144833 717.892533c0 75.388006-59.061555 134.44608-134.453658 134.44608L279.901063 852.338613c-77.765222 0-145.983693-62.831002-145.983693-134.44608l0-119.264291 8.980903 0C53.968282 554.779546 18.59113 457.753805 18.59113 390.441677l0-201.534016c0-47.474278 24.289178-91.31264 59.908813-117.81632-0.647782-2.606387-1.028506-5.309952-1.028506-8.093286L77.471437-12.593574c0-18.87488 15.732941-34.59799 34.597376-34.59799l75.571189 0c10.839347 0 19.022029 4.102451 24.596173 10.286285 6.021427 5.562675 10.002227 13.646848 10.002227 24.311706l0 57.662281L841.36613 45.068707 841.36613-12.593574c0-18.87488 15.734989-34.59799 34.599424-34.59799l75.561979 0c10.887373 0 19.098726 4.135219 24.675021 10.360934 5.974323 5.563699 9.920307 13.620224 9.920307 24.237056l0 75.590606c0 3.410637-0.530125 6.71703-1.487974 9.851392 30.052659 25.74336 48.836198 67.339674 48.836198 116.058317L1033.471085 390.441713C1033.471078 449.917338 997.449216 552.879309 916.879974 598.629274zM203.113062 717.892506c0 36.747981 41.276723 65.253171 76.786893 65.253171l503.791213 0c36.592845 0 65.256858-28.662784 65.256858-65.253171l0-97.365538c-6.855373 0.7552-13.905203 1.166541-21.174067 1.166541L248.412641 621.693508c-16.05632 0-31.137382-1.315942-45.298483-3.752448L203.114158 717.892533zM779.751322 160.392294 272.31089 160.392294l0-46.130643L153.942259 114.261651c-34.620928 0-66.155315 35.587482-66.155315 74.645094L87.786944 390.441713c0 1.619866 4.369715 162.058957 160.624742 162.058957l579.362402 0c103.806362 0 136.500326-126.327194 136.500326-162.058957l0-201.534016c0-36.196352-19.144806-74.645094-54.622208-74.645094L779.751362 114.262602 779.751362 160.392246zM268.943053 469.116518c-65.131008 0-118.108672-52.976538-118.108672-118.093619 0-65.115034 52.977664-118.092595 118.108672-118.092595 65.120768 0 118.098432 52.977562 118.098432 118.092595C387.041485 416.139981 334.063821 469.116518 268.943053 469.116518zM268.943053 302.125261c-26.974413 0-48.912998 21.93664-48.912998 48.896614 0 26.963046 21.938586 48.90071 48.912998 48.90071 26.963149 0 48.901734-21.937664 48.901734-48.90071C317.844787 324.061901 295.906202 302.125261 268.943053 302.125261zM782.049792 469.116518c-62.843802 0-113.966182-51.117261-113.966182-113.947238 0-62.821786 51.122381-113.927782 113.966182-113.927782 62.833562 0 113.94263 51.105997 113.94263 113.927782C895.991398 417.998336 844.883354 469.116518 782.049792 469.116518zM782.049792 310.434509c-24.687206 0-44.769485 20.069069-44.769485 44.734874 0 24.670925 20.082176 44.753306 44.769485 44.753306 24.673997 0 44.745933-20.082381 44.745933-44.753306C826.794701 330.504602 806.723789 310.434509 782.049792 310.434509z"  horiz-adv-x="1034" />

    
    <glyph glyph-name="jiafangjiashi" unicode="&#58900;" d="M353.667326 461.347087l343.203107 0c46.057075 0 83.531315 37.472721 83.531315 83.527974L780.401748 812.4538c0 46.065378-37.47424 83.546199-83.531315 83.546199L353.667335 896c-46.057075 0-83.531315-37.480822-83.531315-83.546199l0-267.578803C270.136011 498.819808 307.610251 461.347087 353.667326 461.347087zM326.83207 812.453836c0 14.810417 12.042456 26.85338 26.835255 26.85338l343.203107 0c14.792799 0 26.834243-12.04195 26.834243-26.85338l0-267.578803c0-14.792191-12.040431-26.835154-26.834243-26.835154L353.667335 518.039879c-14.792799 0-26.835255 12.043975-26.835255 26.835154L326.83208 812.4538zM927.41098 574.734548l-55.182307 0c-48.068775 0-91.836918-41.209473-91.836918-86.460268l0-50.642926c-8.461432 2.89797-17.392375 4.819453-26.824117 4.819453L296.971244 442.450808c-9.440956 0-18.373823-1.920471-26.843356-4.826541l0 50.650009c0 47.677228-36.237735 86.460268-80.771961 86.460268L134.172611 574.734544c-47.533449 0-90.831169-41.209473-90.831169-86.460268L43.341441 29.380607c0-43.741109 41.913386-97.184812 90.831169-97.184812l60.369246 0 0-37.797532 75.594114 0 0 37.797532 529.164871 0 0-37.797532 75.595126 0 0 37.797532 52.51497 0c47.00521 0 79.768136 51.212588 79.768136 97.184812L1007.179074 488.274318C1007.179116 536.755966 972.137384 574.734548 927.41098 574.734548zM270.136011 358.904699c0 14.809404 12.042456 26.850342 26.835255 26.850342l456.596302 0c14.763436 0 26.777642-11.994462 26.824117-26.759315l0-135.488292c-0.046577-14.761815-12.060682-26.739065-26.824117-26.739065L296.971244 196.768368c-14.792799 0-26.835255 12.030812-26.835255 26.833129L270.135988 358.904663zM950.48093 29.38059c0-19.543805-13.539081-40.493106-23.070051-40.493106L134.172611-11.112517c-13.400465 0-34.135009 24.599988-34.135009 40.493106L100.037602 488.274318c0 13.903795 18.17962 29.765525 34.135009 29.765525l55.182307 0c14.874713 0 24.074889-15.456008 24.074889-29.765525l0-348.200722 83.541484 0 456.596302 0 83.522258 0 0 83.433841c0 0.037464 0.010125 0.057714 0.010125 0.094064l0 135.304136c0 0.027338-0.010125 0.06379-0.010125 0.091027L837.08985 488.274318c0 13.629601 19.044728 29.765525 35.138833 29.765525l55.182307 0c14.44064 0 23.070051-15.131187 23.070051-29.765525L950.481042 29.380607z"  horiz-adv-x="1024" />

    
    <glyph glyph-name="jujia" unicode="&#58901;" d="M975.677399 356.164998c0 59.269127-26.495537 101.766697-76.635687 122.904879-28.452742 12.000009-59.530148 14.983111-84.770398 15.825392l0 0.399901L79.613088 495.295171l0-290.364462c0-155.709897 74.385628-230.565122 142.672573-260.615217l-92.582889 0 0-50.087597 651.17453 0 0 50.087597L673.383318-55.684508c25.215996 10.304533 47.546712 25.289665 66.705456 45.084845 74.050333 76.54969 74.491633 196.798781 74.213938 211.975813C915.837219 209.284151 975.677399 265.820688 975.677399 356.164998zM703.914357 24.0462c-29.839298-30.751003-70.650082-46.33801-121.311265-46.33801l-292.89506-0.032337c-6.52998 0.357528-160.00528 11.347709-160.00528 227.254809L129.702753 445.205534l634.47697 0 0.016169-242.900427C764.228176 201.18107 766.862945 88.922082 703.914357 24.0462zM814.270405 251.529289 814.270405 444.707677c20.847249-0.773565 44.781684-3.129528 65.310715-11.787999 31.387439-13.239128 46.006655-37.62305 46.006655-76.754728C925.587776 280.291862 869.708389 256.486573 814.270405 251.529289zM263.27616 896l50.091645 0 0-333.922402-50.091645 0 0 333.922402ZM430.243626 896l50.091645 0 0-333.922402-50.091645 0 0 333.922402ZM580.515629 896l50.091645 0 0-333.922402-50.091645 0 0 333.922402Z"  horiz-adv-x="1024" />

    
    <glyph glyph-name="yiyaobaojian" unicode="&#58902;" d="M780.801528 896 271.912831 896c-48.902497 0-88.672759-39.767629-88.672759-88.645826l0-77.581324c0-48.882348 39.771274-88.647851 88.672759-88.647851l508.889701 0c48.902497 0 88.670734 39.766617 88.670734 88.647851L869.473266 807.354153C869.472262 856.232472 829.705038 896 780.801528 896zM810.651196 729.7728c0-16.44657-13.383253-29.830228-29.849668-29.830228L271.912831 699.942572c-16.469453 0-29.852706 13.383658-29.852706 29.830228L242.060125 807.354153c0 16.445557 13.383253 29.830228 29.852706 29.830228l508.889701 0c16.466415 0 29.849668-13.384671 29.849668-29.830228L810.652201 729.772829zM780.801528 621.516341 271.912831 621.516341c-48.902497 0-88.672759-39.762567-88.672759-88.644813l0-548.129516c0-48.882348 39.771274-88.647851 88.672759-88.647851l508.889701 0c48.902497 0 88.670734 39.766617 88.670734 88.647851L869.473266 532.871503C869.472262 581.753774 829.705038 621.516341 780.801528 621.516341zM810.651196-15.258021c0-16.447582-13.383253-29.830228-29.849668-29.830228L271.912831-45.088248c-16.469453 0-29.852706 13.383658-29.852706 29.830228L242.060125 532.871503c0 16.444545 13.383253 29.830228 29.852706 29.830228l508.889701 0c16.466415 0 29.849668-13.385683 29.849668-29.830228L810.652201-15.258014zM631.75954 437.809484c-7.752052 1.35892-15.508154 2.049974-23.070053 2.049974-34.810978 0-63.494006-14.771942-84.287277-33.889775-20.794284 19.117834-49.494525 33.889775-84.262977 33.889775-7.564835 0-15.321038-0.691054-23.074103-2.049974-45.262746-7.927828-79.671039-38.301482-92.05958-81.265475-14.054157-48.736644 2.220079-103.134461 41.45299-138.581512 44.384475-40.112599 93.61078-88.990897 120.052466-115.260452 7.905856-7.869101 13.899341-13.807707 17.232498-17.021283l20.428962-19.665209 20.390587 19.665209c3.217829 3.100274 8.788278 8.634069 16.162858 15.929469 26.266619 26.076263 75.190379 74.612527 121.391135 116.352266 39.290625 35.524914 55.601212 89.997658 41.530955 138.770754C711.278699 399.59508 676.930145 429.90292 631.75954 437.809484zM642.674745 261.59537c-44.460314-40.186514-91.007153-86.117228-118.51939-113.400733-27.514262 27.340106-74.904035 74.227056-118.254309 113.400733-22.324322 20.171171-32.128475 51.781229-24.372372 78.654861 3.579 12.434611 14.282787 34.127518 45.683757 39.621926 4.423958 0.776106 8.770053 1.168665 12.925892 1.168665 35.765189 0 55.409944-30.07921 58.989045-36.111778l25.333671-42.686761 25.272919 42.72625c3.561888 6.02052 23.148929 36.07229 58.955631 36.07229 4.153814 0 8.498896-0.393571 12.923867-1.168665 31.285541-5.477093 41.950852-27.063887 45.511728-39.440784C674.900321 313.522404 665.05668 281.835394 642.674745 261.59537z"  horiz-adv-x="1024" />

    
    <glyph glyph-name="tushuyinxiang" unicode="&#58903;" d="M541.416695 469.080489c55.522875 0 100.690285 45.165591 100.690285 100.675127 0 55.520551-45.16842 100.695236-100.690285 100.695236-55.53197 0-100.708474-45.174686-100.708474-100.695236C440.708119 514.24608 485.883715 469.080489 541.416695 469.080489zM541.416695 612.252079c23.427452 0 42.488177-19.059916 42.488177-42.496564 0-23.416437-19.060725-42.476353-42.488177-42.476353-23.435536 0-42.506366 19.059916-42.506366 42.476353C498.910329 593.193173 517.981058 612.252079 541.416695 612.252079zM852.705858 535.351927c0.777607 8.933136 1.486599 17.818776 1.486599 26.409644 0 184.301808-144.749945 334.238429-322.664663 334.238429-177.907745 0-322.637378-149.936621-322.637378-334.238429 0-8.591777 0.710002-17.477518 1.486599-26.409644l-81.279172 0L129.097844-104.866332l795.442776 0L924.540619 535.351964 852.705891 535.351964zM531.527794 837.798296c145.820406 0 264.462555-123.828925 264.462555-276.036725 0-12.731234-1.478515-26.315664-3.666931-40.467711l-1.685473-5.191627-1.109871 0.228179c-1.042165-5.078548-2.197511-9.908707-3.381151-14.654991-3.87399-12.617044-9.453562-30.615696-15.632078-43.924451L292.546842 457.750969c-6.431959 13.878394-12.267196 32.9565-16.141085 45.648324-1.345225 4.385826-2.567165 8.393914-3.676026 11.813264l-1.978427 6.109598c-2.179321 14.152048-3.657836 27.717378-3.657836 40.439518C267.093535 713.969371 385.716483 837.798296 531.527794 837.798296zM866.336368-46.664607 187.300903-46.664607 187.300903 321.949231l679.026417 0 0 58.201755L187.300903 380.150986 187.300903 477.151218l35.003881 0c7.456036-26.428844 17.401425-48.434472 29.840311-65.409047 0.084784-0.1151 0.151479-0.266579 0.237375-0.379658l8.72446-11.812253 540.852936 0 0.018178 0 8.714355 11.812253c13.414356 18.16923 22.744835 42.874201 29.167699 65.788806l26.478369 0L866.338468-46.664577z"  horiz-adv-x="1024" />

    
    <glyph glyph-name="qiehuanqiyou" unicode="&#58904;" d="M881.298746 375.657405 398.119373 896 175.112486 896 658.29178 375.657405 175.112507-107.504117l223.006914 0L881.298746 375.657405z"  horiz-adv-x="1024" />

    
    <glyph glyph-name="qiehuanqizuo" unicode="&#58905;" d="M658.29178-107.504117l223.006914 0L398.119373 375.657405 881.298746 896 658.291782 896 175.112507 375.657405 658.29178-107.504117z"  horiz-adv-x="1024" />

    
    <glyph glyph-name="qitianwuliyoutuihuanhuo" unicode="&#58906;" d="M511.219712 890.883482C231.853875 890.883482 4.577485 663.61641 4.577485 384.263987c0-279.337984 227.27639-506.60311 506.642227-506.60311 279.362765 0 506.640179 227.267072 506.640179 506.60311C1017.859891 663.615386 790.582477 890.883482 511.219712 890.883482zM511.219712-70.48919c-250.77248 0-454.789222 204.006298-454.789222 454.753178 0 250.761216 204.016742 454.768538 454.789222 454.768538 250.770432 0 454.788198-204.007322 454.788198-454.768538C966.00791 133.518131 761.990144-70.48919 511.219712-70.48919zM746.51095 501.330227l-303.348019-31.461581L443.162931 612.187049c0 14.31296-11.614003 25.926451-25.926554 25.926451-14.319718 0-25.926554-11.613491-25.926554-25.926451L391.309824 464.502475l-144.862106-15.022182c-14.238822-1.4848-24.592077-14.227046-23.117414-28.456141 1.385574-13.332685 12.642406-23.258726 25.757696-23.258726 0.895386 0 1.799066 0.0512 2.707763 0.135066l139.513037 14.465434 0-128.562051c0-74.68503 20.053504-120.984474 119.894426-120.984474l139.366711 0c28.882944 0 96.499712 0 96.499712 79.226368 0 14.31296-11.612979 25.925427-25.926554 25.925427s-25.927578-11.612467-25.927578-25.925427c0-21.706342-1.76937-27.377562-44.645581-27.377562L511.2023 214.668207c-61.76215 0-68.040397 13.098291-68.040397 69.135565L443.161903 417.748638l308.6848 32.000819c14.24599 1.4848 24.591053 14.229094 23.120486 28.458189C773.485363 492.452045 760.539034 502.732186 746.51095 501.330227z"  horiz-adv-x="1024" />

    
    <glyph glyph-name="zhengpinbaozhang" unicode="&#58907;" d="M522.710283 896c-275.538779 0-499.706581-224.155548-499.706581-499.688149s224.166789-499.686124 499.706581-499.686124c275.545868 0 499.708606 224.153522 499.708606 499.686124C1022.420915 671.844452 798.255139 896 522.710283 896zM522.710283-52.235006C275.373047-52.235006 74.147021 148.981805 74.147021 396.311952S275.373047 844.859923 522.710283 844.859923c247.342299 0 448.567415-201.218837 448.567415-448.546958C971.276685 148.981805 770.049545-52.235006 522.710283-52.235006zM405.759853 623.84776c2.012985 13.95094-7.623966 26.851283-21.558195 28.915815-14.001069 2.000833-26.936452-7.590242-29.034405-21.507762-0.150794-0.982643-16.115327-99.935402-118.934148-237.375809-8.458954-11.304396-6.143266-27.335059 5.158598-35.79057 4.595829-3.429782 9.974997-5.093581 15.300593-5.093581 7.773747 0 15.468603 3.546144 20.493522 10.254913 8.942731 11.954158 17.212407 23.606727 24.972989 34.994166l0-220.345269c0-14.118849 11.451646-25.572115 25.570089-25.572115 14.116418 0 25.573127 11.450127 25.573127 25.572115L353.302024 483.1516C396.94665 566.699108 405.301395 620.699311 405.759853 623.84776zM745.396373 467.695814c14.117431 0 25.571102 11.452152 25.571102 25.572115 0 14.114899-11.450633 25.570089-25.571102 25.570089L558.811053 518.838018c3.597894 60.892073 1.020215 105.38617 0.711538 110.288549-0.879447 14.08553-12.621642 24.788775-27.139807 23.907303-14.081986-0.899701-24.785737-13.034022-23.904265-27.134642 0.078992-1.170908 2.676925-45.93216-1.080877-107.061109L421.491538 518.83812c-14.116418 0-25.570089-11.454177-25.570089-25.570089 0-14.118849 11.452658-25.572115 25.570089-25.572115l81.450883 0c-10.680459-93.92389-38.016632-205.509836-105.589929-262.680667-10.786693-9.122489-12.136853-25.267488-3.010921-36.037573 5.058338-5.977079 12.284609-9.058687 19.542172-9.058687 5.826487 0 11.702598 1.980578 16.497831 6.042906 81.528794 68.98027 112.731131 197.479365 124.142268 301.734122L745.396415 467.696017 745.396373 467.695814zM753.918116 322.798743c-14.11338 0-25.569077-11.456203-25.569077-25.575153l0-59.16254c0-12.001756-17.580734-26.069968-26.604482-26.069968l-50.958038 0c-6.677679 0-16.598091 2.148589-22.558156 8.189368-4.328673 4.398348-6.377104 10.756919-6.260742 19.444242 0.56368 40.985423 0.431115 179.493441 0.431115 185.370362-0.018229 14.116823-11.452658 25.553886-25.571102 25.553886l-0.018217 0c-14.133634-0.016204-25.573127-11.468356-25.554898-25.58528 0-1.449204 0.132565-144.017625-0.431115-184.63462-0.383619-28.353148 11.199681-46.128527 20.990464-56.053597 20.842708-21.142372 48.179894-23.423526 58.969625-23.423526l50.958038 0c35.215142 0 77.747699 34.442537 77.747699 77.21116l0 59.16254C779.492256 311.34254 768.035547 322.798743 753.918116 322.798743zM616.807045 585.908499l61.197206-26.451562c3.297318-1.433 6.742493-2.09694 10.120728-2.09694 9.891043 0 19.312487 5.759445 23.493302 15.431538 5.607942 12.950979-0.367415 27.998999-13.337129 33.610688l-61.199232 26.453587c-12.918167 5.643084-28.002139-0.367415-33.610081-13.334598C597.860961 606.568209 603.836318 591.518264 616.807045 585.908499z"  horiz-adv-x="1024" />

    
    <glyph glyph-name="bangzhuzhongxin" unicode="&#58908;" d="M522.518404 896c-276.367246 0-501.223192-224.846728-501.223192-501.203642 0-276.354888 224.855945-501.201616 501.223192-501.201616 276.367246 0 501.224205 224.846728 501.224205 501.201616C1023.742609 671.154285 798.884637 896 522.518404 896zM522.518404-55.639085c-248.389075 0-450.454892 202.056599-450.454892 450.435443 0 248.380972 202.065817 450.437469 450.454892 450.437469s450.455905-202.056599 450.455905-450.437469C972.973296 146.418426 770.907479-55.639085 522.518404-55.639085zM394.853185 638.317384c20.922344 0 37.910987 16.972638 37.910987 37.910379 0 20.936728-16.988541 37.893159-37.910987 37.893159-20.938552 0-37.910987-16.956532-37.910987-37.893159C356.943211 655.290021 373.914532 638.317384 394.853185 638.317384zM650.282791 638.317384c20.922344 0 37.894779 16.972638 37.894779 37.910379 0 20.936728-16.972334 37.893159-37.894779 37.893159-20.938552 0-37.909974-16.956532-37.909974-37.893159C612.371906 655.290021 629.344239 638.317384 650.282791 638.317384zM522.518404 638.317384c20.937539 0 37.912 16.972638 37.912 37.910379 0 20.936728-16.975373 37.893159-37.912 37.893159s-37.910987-16.956532-37.910987-37.893159C484.606404 655.290021 501.580764 638.317384 522.518404 638.317384zM644.465097 221.081176c29.715284 26.161034 67.726452 71.571318 67.726452 132.600833 0 89.816428-71.525634 186.771338-187.077656 186.771338-112.891601 0-182.76521-96.954911-182.76521-186.771338 0-65.970396 32.425238-108.73667 59.97422-133.161705-43.661826-29.81425-92.282057-87.00842-92.282057-176.493815 0-14.012789 11.369285-25.38258 25.384606-25.38258s25.384606 11.369791 25.384606 25.38258c0 112.68658 94.612355 148.102764 98.528939 149.50773 9.701964 3.387011 16.329514 12.327336 16.90558 22.571533 0.562797 10.263342-5.171835 19.88194-14.426377 24.325766-2.809122 1.356446-68.700305 33.910936-68.700305 113.250389 0 65.408613 50.471707 136.005166 131.99691 136.005166 84.200717 0 136.30733-70.597465 136.30733-136.005166 0-68.499133-76.169113-113.778746-76.880813-114.208035-8.525621-4.924674-13.434392-14.325588-12.592122-24.144548 0.826063-9.815921 7.272396-18.243083 16.510731-21.647315 1.025514-0.381579 102.347367-38.985426 102.347367-149.656533 0-14.012789 11.368272-25.38258 25.383593-25.38258 14.014409 0 25.384606 11.369791 25.384606 25.38258C741.573775 140.468339 684.59202 194.789572 644.465097 221.081176z"  horiz-adv-x="1024" />

    
    <glyph glyph-name="shuru" unicode="&#58909;" d="M861.428838 639.35273c2.413056-5.362074 4.346163-11.614515 5.808538-18.76439 1.49207-7.146803 2.232934-14.593331 2.232934-22.336717 0-7.743386-1.487974-15.481549-4.468941-23.224934-2.988134-7.745434-7.754957-15.191962-14.291046-22.336717-7.149158-7.150899-13.550182-13.402214-19.212288-18.762342-5.659136-5.361152-10.572186-10.126643-14.743347-14.296576-4.7616-4.764467-9.231667-8.935526-13.401805-12.506829L636.272845 674.195354c7.146086 6.552269 15.635763 14.44393 25.460941 23.679283 9.82825 9.232282 18.021171 16.525414 24.572621 21.888512 8.340275 6.551245 16.979354 11.167334 25.914266 13.850419 8.932762 2.677965 17.72032 3.870106 26.355302 3.571302 8.63703-0.299827 16.974234-1.639322 25.019802-4.020531 8.040448-2.382234 15.036006-5.061222 20.990874-8.042189 12.514509-6.557389 26.36247-18.01943 41.552077-34.397389C841.324134 674.347827 853.092659 657.219686 861.428838 639.35273L861.428838 639.35273zM165.404774 203.348582c3.572531 3.57335 11.91383 12.06272 25.015706 25.46391 13.105971 13.403238 29.487821 29.929677 49.141146 49.587405l65.228186 65.217331 72.373248 72.370278 192.09984 192.094003 167.07799-167.967539L544.243098 248.022016l-71.47776-72.370278c-23.826637-23.22903-45.270835-44.52608-64.331776-63.882957-19.059814-19.358925-34.848051-35.289702-47.355392-47.798682-12.510413-12.507853-19.956326-19.65568-22.337638-21.443379-5.952819-5.360128-12.808192-11.017933-20.547789-16.972595-7.742669-5.960806-15.783117-10.72425-24.12544-14.296576-8.336179-4.170957-20.549837-9.231258-36.634829-15.18889-16.080896-5.955686-32.907776-11.762893-50.480742-17.421824-17.56887-5.662003-34.247373-10.574848-50.036634-14.745805-15.784141-4.163789-27.545498-6.849024-35.290112-8.037069-16.086016-1.787699-26.804531 0.595558-32.166912 7.146803-5.360333 6.549197-6.849229 17.568154-4.467917 33.057894 1.192243 8.33792 4.023808 20.396544 8.490701 36.184064 4.467917 15.785472 9.231667 32.162509 14.29207 49.140224 5.065523 16.972595 9.977651 32.60969 14.745395 46.904218 4.764672 14.293504 8.633958 24.123392 11.614003 29.48352 3.574579 8.336896 7.596339 15.932928 12.062208 22.782874C150.663475 187.416781 157.068595 195.008614 165.404774 203.348582L165.404774 203.348582zM165.404774 203.348582M463.329075 34.839757l79.902003 0 0-79.548723-79.902003 0 0 79.548723ZM625.668915 34.839757l79.902003 0 0-79.548723-79.902003 0 0 79.548723ZM788.655514 34.839757l79.902003 0 0-79.548723-79.902003 0 0 79.548723Z"  horiz-adv-x="1024" />

    
    <glyph glyph-name="qiehuanqishang" unicode="&#58910;" d="M975.064474 207.914598 526.855475 656.102195 78.12137 207.384474 78.12137 89.26935 78.63511 88.755712 526.855475 536.959693 975.064474 88.771072Z"  horiz-adv-x="1024" />

    
    <glyph glyph-name="nanzhuang" unicode="&#58911;" d="M998.940262 853.200179 54.312155 853.200179c-17.383629 0-31.48841-14.103245-31.48841-31.486157l0-293.874097c0-17.381888 14.104781-31.485133 31.48841-31.485133l115.455159 0 0-514.275833c0-17.381888 14.102733-31.487181 31.48841-31.487181L851.998717-49.408222c17.382605 0 31.48841 14.104269 31.48841 31.487181L883.487126 496.354927l115.453112 0c17.385677 0 31.48841 14.103245 31.48841 31.485133L1030.428648 821.71411C1030.427648 839.097037 1016.325939 853.200179 998.940262 853.200179zM683.491123 790.22592c-3.731149-22.262067-13.037466-52.64087-36.03927-76.829798-25.78944-27.140096-64.021709-40.895386-113.629491-40.895386-113.570202 0-147.681382 73.775309-158.012109 117.724262L683.491144 790.224998zM232.743117 13.564211l0 41.98216 587.768184 0 0-41.98216L232.743135 13.564211zM967.452877 559.32713 851.998717 559.32713c-17.385677 0-31.48841-14.104269-31.48841-31.487181l0-430.311513L232.743135 97.528436 232.743135 527.840012c0 17.382912-14.104781 31.487181-31.48841 31.487181L85.799554 559.327193 85.799554 790.225955l247.43125 0c10.804531-54.158438 51.024179-159.706419 200.591565-159.706419 61.560525 0 110.021222 18.141184 144.052634 53.953843 32.635597 34.313523 44.073574 76.932198 48.010342 105.752576L967.452853 790.225955 967.452853 559.327144z"  horiz-adv-x="1031" />

    
    <glyph glyph-name="xie" unicode="&#58912;" d="M815.91849 423.95392 709.571171 423.95392c-59.208909 0-103.897498 15.485645-132.79273 46.0416-41.952154 44.335718-38.909747 108.202394-38.823731 110.870118L537.95471 793.507698c0 18.546381-15.048294 33.595187-33.595494 33.595187L56.395692 827.102885c-18.5472 0-33.597542-15.048704-33.597542-33.595187l0-671.916153c0-1.924813 0.262963-3.761664 0.569958-5.598515-0.306995-1.837875-0.569958-3.67575-0.569958-5.599539l0-89.590458c0-12.159898 6.519706-22.70208 16.18729-28.606566 5.905715-9.667174 16.447283-16.186675 28.610765-16.186675l929.519384 0c18.549248 0 33.597542 15.04768 33.597542 33.596211L1030.71313 121.591545l0 79.529311C1030.713139 366.167859 891.664691 418.988851 815.91849 423.95392zM89.99424 759.910502l380.787838 0 0.045056-176.836506c-0.241459-3.762688-5.315277-92.564173 56.47657-158.552064 42.106675-44.970189 103.417549-67.76023 182.267494-67.76023l104.116429 0.065536c6.123725-0.393933 149.831475-11.591987 149.831475-155.70729l0-45.933145L89.994258 155.186803 89.994258 759.910509zM963.520102 43.20215 89.994258 43.20215l0 44.794206 873.524845 0L963.519102 43.202197zM380.754022 720.738304c-16.952832 0-30.690202-13.735834-30.690202-30.685901 0-16.973619 13.737472-30.686925 30.690202-30.686925 16.971162 0 30.688154 13.713306 30.688154 30.686925C411.442278 707.00247 397.72631 720.738304 380.754022 720.738304zM380.754022 619.469926c-16.952832 0-30.690202-13.71433-30.690202-30.686925 0-16.951091 13.737472-30.663373 30.690202-30.663373 16.971162 0 30.688154 13.712282 30.688154 30.663373C411.442278 605.755597 397.72631 619.469926 380.754022 619.469926zM380.754022 518.223974c-16.952832 0-30.690202-13.736858-30.690202-30.709453 0-16.928563 13.737472-30.665421 30.690202-30.665421 16.971162 0 30.688154 13.736858 30.688154 30.665421C411.442278 504.487117 397.72631 518.223974 380.754022 518.223974z"  horiz-adv-x="1031" />

    
    <glyph glyph-name="jiafang" unicode="&#58913;" d="M849.999342 896 204.786514 896c-52.434574 0-95.099735-42.663434-95.099735-95.119233l0-803.186985c0-52.452752 42.66516-95.117202 95.099735-95.117202l645.212818 0c52.433559 0 95.098719 42.664449 95.098719 95.117202L945.098051 800.880724C945.098061 853.336465 902.432901 896 849.999342 896zM877.360892-2.30523c0-15.103041-12.279225-27.381759-27.361549-27.381759L204.786514-29.686988c-15.082324 0-27.362565 12.279733-27.362565 27.381759L177.423949 800.880724c0 15.103041 12.28024 27.384805 27.362565 27.384805l645.212818 0c15.082324 0 27.361549-12.281764 27.361549-27.384805L877.360881-2.305247zM245.158072 15.464828l564.467719 0L809.62579 760.532155 245.158048 760.532155 245.158048 15.464848zM290.31588 60.620809 290.31588 236.877594c2.338286 0.794662 4.631989 1.764809 6.682064 3.396684l161.358275 127.88174 76.312002-98.777825c7.541721-9.789319 21.629423-11.707373 31.553098-4.144631l93.930642 71.569521 104.316084-131.65194 0-144.530445L290.315831 60.620698zM764.467944 715.376179 764.467944 277.888863 681.783416 382.221989c-7.652313 9.636073-21.563514 11.46476-31.399853 3.924461l-93.70834-71.41526-76.577972 99.107572c-3.683067 4.785032-9.129013 7.872178-15.125993 8.5989-5.953413 0.882912-12.038643-0.946892-16.756953-4.717092L290.31588 292.572771 290.31588 715.376222 764.467984 715.376222z"  horiz-adv-x="1024" />

    
    <glyph glyph-name="diqufucengdanchujinggao" unicode="&#58914;" d="M543.067341 52.065075c-189.901722 0-343.85623 153.949286-343.85623 343.841075 0 189.918515 153.954509 343.841075 343.85623 343.841075 189.89865 0 343.855206-153.922662 343.855206-343.841075C886.922547 206.014259 732.966912 52.065075 543.067341 52.065075zM543.067341 684.733338c-159.517491 0-288.839987-129.317274-288.839987-288.827187s129.322598-288.827187 288.839987-288.827187c159.516467 0 288.836915 129.31625 288.836915 288.827187S702.583706 684.733338 543.067341 684.733338zM495.975936 316.230554l-21.651968 167.355597 0 91.170442 137.487844 0 0-91.170442-21.651968-167.355597L495.975903 316.230554zM596.60585 189.600461 492.374741 189.600461 492.374741 259.82077l104.231077 0L596.605818 189.600475z"  horiz-adv-x="1024" />

    
    <glyph glyph-name="diantileimu" unicode="&#58915;" d="M381.468365 89.937613 381.468365 245.323591l543.881899 0 0-155.387L381.468365 89.936591zM381.468365 478.404096l543.881899 0 0-155.387L381.468365 323.017096 381.468365 478.40409zM381.468365 711.490765l543.881899 0L925.350264 556.098613 381.468365 556.098613 381.468365 711.490729zM148.376269 245.323571l155.393366 0 0-155.387L148.376268 89.936572 148.376268 245.323591zM148.376269 478.404096l155.393366 0 0-155.387L148.376268 323.017096 148.376268 478.40409zM148.376269 711.490765l155.393366 0L303.769635 556.098613 148.376268 556.098613 148.376268 711.490729z"  horiz-adv-x="1024" />

    
    <glyph glyph-name="huiliuqujiage" unicode="&#58916;" d="M891.400704 400.941875c24.016998-28.377293 24.288154-55.66679 0.819712-81.865523l-253.79031-254.599578c-5.456486-4.365414-11.324416-7.502848-17.600614-9.413427s-12.686438-2.590003-19.239936-2.046566c-6.547354 0.54743-12.687462 1.910477-18.420224 4.093235-5.727642 2.182758-10.505728 5.184102-14.326886 9.00608-61.128704 61.126144-115.705856 115.973325-163.735654 164.54871l-60.581171 61.398323c-20.194714 19.646464-38.067507 37.382349-53.62135 53.211955-15.558963 15.825408-28.246426 28.652544-38.072627 38.47424l-15.553843 15.557325c-1.090867 1.090867-2.866381 3.414733-5.320397 6.956442-2.454016 3.549798-5.049242 8.18647-7.779533 13.916979-2.726195 5.733581-5.184307 12.145664-7.367066 19.240243-2.182758 7.096627-3.273728 14.734541-3.273728 22.921011l0 14.737656c0 7.638938 0.13609 17.188454 0.407245 28.65152 0.276275 11.459994 0.548557 24.012902 0.819712 37.655654 0.272179 13.646848 0.412365 27.561779 0.412365 41.751962 0.543437 33.293312 1.090867 70.132326 1.634304 110.517043 1.091891 6.551245 2.31895 13.098291 3.686093 19.646464 1.363149 6.551245 4.772864 12.827136 10.233446 18.830848 5.456486 5.456282 11.596595 9.14217 18.420224 11.052749 6.819635 1.910477 12.959642 2.862182 18.420224 2.862182l248.877241 0c1.090867 0.54743 4.91305 0.68352 11.460506 0.411341 6.55145-0.291635 10.64489-0.975258 12.280218-2.046566 3.273728-1.111347 6.959821-3.021824 11.053158-5.731533 4.09344-2.746573 7.503155-5.476762 10.233446-8.18647L891.400704 400.941875zM333.063987 581.043712c14.190797 0 26.194637 4.910797 36.020838 14.736589 9.826202 9.821696 14.734131 21.82912 14.734131 36.019405 0 14.190182-4.90793 26.194637-14.734131 36.019405-9.826202 9.826816-21.830042 14.734541-36.020838 14.734541-14.190797 0-26.335846-4.908749-36.433203-14.734541-10.097357-9.824768-15.146598-21.82912-15.146598-36.019405 0-14.190182 5.049242-26.197709 15.146598-36.019405C306.728141 585.953587 318.874214 581.043712 333.063987 581.043712L333.063987 581.043712zM333.063987 581.043712"  horiz-adv-x="1024" />

    
    <glyph glyph-name="jiantoucu" unicode="&#58917;" d="M725.543629 450.741043 725.543629 550.807142 625.480602 550.807142 625.480602 650.864947 525.416653 650.864947 525.416653 750.923878 425.352602 750.923878 425.352602 850.983731 225.219482 850.983731 225.219482 750.923878 325.289574 750.923878 325.289574 650.864947 425.352602 650.864947 425.352602 550.807142 525.416653 550.807142 525.416653 450.741043 625.480602 450.741043 625.480602 350.68631 525.416653 350.68631 525.416653 250.620211 425.352602 250.620211 425.352602 150.562406 325.289574 150.562406 325.289574 50.502451 225.219482 50.502451 225.219482-49.556378 425.352602-49.556378 425.352602 50.502451 525.416653 50.502451 525.416653 150.562406 625.480602 150.562406 625.480602 250.620211 725.543629 250.620211 725.543629 350.68631 825.61577 350.68631 825.61577 450.741043Z"  horiz-adv-x="1024" />

    
    <glyph glyph-name="jiantouxi" unicode="&#58918;" d="M302.348186 851.688755l127.714918 0 0-127.710618-127.714918 0 0 127.710618ZM430.06208 723.978138l127.721984 0 0-127.707546-127.721984 0 0 127.707546ZM557.784064 596.270592l127.711846 0 0-127.709594-127.711846 0 0 127.709594ZM685.49591 468.56192l127.714918 0 0-127.716762-127.714918 0 0 127.716762ZM557.784064 340.845158l127.711846 0 0-127.701402-127.711846 0 0 127.701402ZM430.06208 213.143654l127.721984 0 0-127.717786-127.721984 0 0 127.717786ZM302.348186 77.446144 302.348186-42.280755 302.348186-50.261504 430.06208-50.261504 430.06208-42.280755 430.06208 77.446144 430.06208 85.425869 302.348186 85.425869Z"  horiz-adv-x="1024" />

    
    <glyph glyph-name="chongshuidian" unicode="&#58919;" d="M527.706829 850.324685c-248.306176 0-449.627443-201.272013-449.627443-449.612083 0-248.296038 201.322291-449.609011 449.627443-449.609011s449.629491 201.313997 449.629491 449.609011C977.33632 649.052672 776.012083 850.324685 527.706829 850.324685zM792.785715 230.615654c-2.021069-12.118016-4.831232-23.006003-8.254362-32.66601-8.254362-36.707021-36.884582-54.006989-85.799526-51.898982l-67.178711 0c-50.935091-2.10903-75.788186 21.075968-74.383053 69.460992L557.170063 373.227656l-75.436134-2.064998c8.254362-118.241997-54.447206-198.154035-188.105728-239.689011-2.107085 4.214989-5.00521 9.046016-8.782336 14.577971-3.81911 5.531955-8.474317 12.118016-13.963571 19.67104-3.468083 4.873011-6.234214 8.867942-8.254362 11.94199-2.107085 3.16201-3.81911 6.060032-5.180211 8.86999 65.424691 20.724019 108.191437 43.205018 128.126259 67.395994 22.74601 22.789018 34.118451 60.196966 34.118451 112.052019l-24.810052 0c-17.914778-1.360998-32.227328-2.766029-42.854707-4.170957-10.713395-1.360998-18.791731-2.721997-24.325018-4.127027l-29.94729 57.078989c20.636877 8.958054 38.551552 21.075968 53.746278 36.267008 33.72032 27.004006 66.829722 58.485043 99.233075 94.4L264.648059 545.430664l0 57.078996 239.830844 0c-0.704102 2.809958-2.810163 9.354035-6.236262 19.71497-3.424154 9.703014-6.190182 17.95799-8.254362 24.894976-2.107085 6.936986-3.775181 12.120064-5.180211 15.542989l68.234854 7.289037c0.702054-4.127027 2.195046-9.658982 4.655206-16.596992 2.370048-6.936986 5.312205-15.89504 8.780288-26.959974l4.12713-14.531994c0.704102-4.170957 1.361101-7.245005 2.065101-9.354035l218.09493 0 0-57.078996L531.352025 545.42964c-51.023155-51.194982-95.107891-92.291994-132.343501-123.467059l243.958989 6.23401c-6.234214 8.342016-16.90368 19.05705-32.05335 32.184013-6.893261 6.893978-12.90752 12.602061-18.090701 17.125069-5.180211 4.523008-9.48439 8.47401-12.90752 11.900006l40.308634 31.173018c26.169037-22.128947 52.514099-44.961997 79.035187-68.495974 26.521088-23.533978 53.218202-47.375974 80.091341-71.567974l-46.45591-41.538048-36.18048 36.35497-78.598246-2.106982 0-140.065036c-2.019021-25.552998 10.715443-37.321011 38.289613-35.211981l31.000285 0c26.871091 0 42.019738 10.360934 45.488845 31.084954 2.021069 13.173043 3.775181 24.894976 5.137203 35.30199 1.361101 10.362982 2.416128 19.67104 3.118182 28.013056 9.61536-4.214989 19.09975-8.16599 28.410163-11.944038 9.308365-3.819008 18.747699-7.463014 28.408115-10.889011C796.604928 255.642624 794.891776 242.689638 792.785715 230.615654z"  horiz-adv-x="1024" />

    
    <glyph glyph-name="jiajuyongpin" unicode="&#58920;" d="M840.226099 227.623424c20.680806-13.258957 37.322547-30.908928 49.836032-52.993946s18.791731-46.409011 18.791731-72.928973c0-20.811981-3.907174-40.219034-11.722445-58.219008-7.86135-18.002022-18.529792-33.632973-31.965286-46.892032-13.523558-13.258957-29.155226-23.797965-47.025869-31.700992s-37.144474-11.854029-57.82528-11.854029c-26.345062 0-50.320077 6.321971-71.921971 18.966938-21.601894 12.557005-38.989517 28.977971-52.163174 49.174938-2.546074 2.545971-4.741222 5.267968-6.586266 8.079053-1.887027 2.809958-4.391219 5.839974-7.551283 8.999936-10.011443 13.919027-16.28969 30.955008-18.793779 51.15095-2.502042 20.195942-3.424154 41.183949-2.808115 62.960947 0.61399 21.776998 1.229005 43.247002 1.887027 64.365978 0.616038 21.161984-0.920986 39.954944-4.69719 56.376013-6.937293 12.642918-14.754611 26.34199-23.535002 41.183949-8.782336 14.840013-18.48576 29.855949-29.155226 45.003981-1.845146 2.501939-3.600179 4.696986-5.180211 6.62999-1.537024 1.887027-2.942157 3.774976-4.215194 5.707981-11.89847-14.577971-23.49097-29.066035-34.77545-43.553997-11.282432-14.577971-22.875955-29.681971-34.773402-45.487002-3.162112-3.774976-5.79625-7.553024-7.991296-11.372032-2.19607-3.819008-4.875264-7.595008-7.991296-11.372032-5.620224-12.029952-8.474317-22.390989-8.474317-31.260979 0-8.824013 1.097011-17.473946 3.29216-26.036019 2.19607-8.515994 4.699238-17.165926 7.553331-26.036019 2.810163-8.867942 4.391219-19.099034 4.653158-30.776934 0.352051-11.680051-1.229005-25.423053-4.653158-41.227981-3.470131-15.716966-10.187469-34.685952-20.240794-56.813978-10.671514-28.365005-28.498227-51.547034-53.612134-69.549056-25.027994-17.999974-53.568205-27.04599-85.533491-27.04599-20.678758 0-39.954534 3.951002-57.82528 11.856077-17.870746 7.903027-33.502413 18.614989-47.025869 32.225997-13.435494 13.522944-24.10496 29.330022-31.965286 47.329997-7.81527 18.002022-11.722445 37.408973-11.722445 58.221056 0 22.742938 4.699238 43.905946 14.094541 63.486976 9.396429 19.582976 22.215885 36.267008 38.551552 50.142003 15.673549 16.420966 32.139264 30.208 49.350963 41.227981 17.212723 11.018957 34.336358 21.293978 51.241062 30.776934s33.063322 18.966938 48.431002 28.406989c15.366554 9.439949 28.672205 20.856013 39.954534 34.11497 2.502042 3.16201 4.831232 6.324019 7.025254 9.483981 2.19607 3.16201 4.567245 6.324019 7.069286 9.439949l0.920986 0.923034c2.546074 5.092966 5.972275 9.835008 10.363494 14.223974 8.780288 11.328 17.562726 23.182029 26.343014 35.518976 8.782336 12.337971 17.826714 24.807014 27.22519 37.408973-16.247706 17.081037-30.209229 30.953984-41.801728 41.667994-11.590451 10.712986-22.743962 23.355904-33.368269 37.845914-21.953843 29.066035-40.484659 59.359949-55.500288 90.971955-15.016653 31.524966-26.607002 61.555917-34.773402 89.921024-8.166298 28.451021-12.382515 53.827994-12.68951 76.219904-0.308019 22.47895 3.600179 38.987981 11.722445 49.787904 4.391219 3.117978 10.669466 5.488026 18.793779 7.113011 8.166298 1.492992 14.752563-1.492992 19.757773-9.043968 11.328512-17.035981 24.148992-36.617011 38.551552-58.745958 14.400512-22.040986 30.121267-45.927014 47.023821-71.480013 16.905728-25.552998 34.468454-52.248986 52.646195-79.995904 18.178765-27.83703 36.354458-55.23497 54.533222-82.368 3.775181 5.005005 7.377306 10.185011 10.801459 15.584973 3.470131 5.399962 7.069286 10.58304 10.801459 15.631053 16.948736 24.630989 33.238323 50.007962 48.915046 76.263936 15.673549 26.168013 30.207181 51.282944 43.731763 75.254989 13.435494 23.97399 25.377997 45.574963 35.739443 64.893952 10.27543 19.231027 18.310758 33.895014 23.975014 43.99401 4.391219 6.934938 11.854438 10.625024 22.523904 10.889011 10.671514 0.350003 19.759821-2.985984 27.267072-9.92297 3.777229-3.774976 7.025254-14.663987 9.87945-32.66601 2.810163-18.002022 1.889075-41.183949-2.854093-69.63497-4.653158-28.365005-14.664602-61.031014-30.033203-97.999974-15.366554-36.92503-39.340544-76.219904-71.919923-117.929882l-30.121267-37.847962c-10.011443-12.642918-20.372787-25.289011-30.998221-37.846938 14.400512-22.128947 28.012134-42.94103 40.87767-62.521958 12.863488-19.581952 24.632013-37.231923 35.257446-53.040026 15.673549-16.420966 31.526298-29.372006 47.507866-38.811955 15.98167-9.483981 31.174246-17.56201 45.576806-24.150016 14.400512-6.672998 27.880141-12.818944 40.39465-18.526925C819.853312 243.780403 830.830797 236.491469 840.226099 227.623424L840.226099 227.623424zM292.080947 32.594637c20.1088 0 37.146522 7.242957 51.285094 21.776998 14.049587 14.487962 21.162803 31.873946 21.162803 52.07296 0 20.195942-7.113318 37.58295-21.162803 52.07296-14.138573 14.531994-31.176294 21.776998-51.285094 21.776998-20.020736 0-37.278515-7.245005-51.67913-21.776998-14.446592-14.49001-21.645824-31.875994-21.645824-52.07296 0-20.19799 7.199232-37.584998 21.645824-52.07296C254.803456 39.837594 272.060211 32.594637 292.080947 32.594637L292.080947 32.594637zM759.347814 32.594637c20.110848 0 37.146522 7.110963 51.285094 21.293978 14.094541 14.18199 21.162803 31.392973 21.162803 51.588915 0 20.19799-7.067238 37.584998-21.162803 52.07296-14.138573 14.577971-31.174246 21.776998-51.285094 21.776998-20.020736 0-37.232435-7.198925-51.67913-21.776998-14.444544-14.487962-21.645824-31.873946-21.645824-52.07296 0-10.096947 1.889075-19.580928 5.664256-28.362957 3.731149-8.867942 8.912384-16.596992 15.499674-23.225958 6.586266-6.62999 14.400512-11.809997 23.532954-15.631053C739.810099 34.436506 749.338522 32.594637 759.347814 32.594637L759.347814 32.594637zM759.347814 32.594637"  horiz-adv-x="1024" />

    
    <glyph glyph-name="jiatingqingji" unicode="&#58921;" d="M977.14903 696.213811c0-18.443059-8.520397-35.526144-25.470157-51.33312-16.950784-15.851008-40.224768-29.64009-69.78007-41.408102-29.553254-11.770061-64.024781-20.902093-103.328461-27.577037-39.34464-6.588006-81.677517-9.92297-127.172506-9.92297-45.404979 0-88.001843 3.335987-127.654502 9.92297-39.698739 6.675046-74.346291 15.806976-103.899546 27.577037-29.553254 11.768013-53.00224 25.557094-70.305075 41.408102-17.344717 15.806976-25.995059 32.890061-25.995059 51.33312 0 18.353971 8.474317 35.480064 25.426125 51.28704 16.948736 15.809024 40.224768 29.772083 69.778022 41.935053 29.597286 12.120064 64.200806 21.69303 103.899546 28.674048 39.696691 7.024947 82.249523 10.451046 127.698534 10.451046 45.407027 0 88.001843-3.425997 127.700582-10.451046 39.652659-6.981018 74.300211-16.555008 103.853466-28.674048 29.555302-12.163994 52.828262-26.126029 69.78007-41.935053C968.628634 731.693875 977.14903 714.567782 977.14903 696.213811L977.14903 696.213811zM651.398963 750.22592c-27.400192 0-50.500198-4.743066-69.205914-14.316032-18.795827-9.573069-28.148224-20.990054-28.148224-34.20713s9.352397-24.459059 28.148224-33.681101c18.705818-9.132032 41.805824-13.787034 69.205914-13.787034 26.70121 0 49.622118 4.655002 68.725965 13.787034 19.101798 9.222042 28.674253 20.464128 28.674253 33.681101s-9.572352 24.633037-28.674253 34.20713C701.021082 745.482957 678.099149 750.22592 651.398963 750.22592L651.398963 750.22592zM324.64087 607.951565c20.19881-16.249037 45.80096-30.915072 76.805325-44.176179 26.699162-11.064013 60.423578-21.16608 101.175398-30.299034 40.751718-9.219994 90.022912-13.830963 147.72439-13.830963 58.404557 0 108.202701 4.61097 149.304422 13.830963 41.10377 9.13408 75.004211 19.235123 101.703373 30.299034 30.300365 13.261005 55.594394 27.92704 75.795251 44.176179l0-514.205225c0-10.275021-5.972275-22.263091-17.872794-35.876045-11.900518-13.569024-30.476288-26.654106-55.726387-39.213056-25.250099-12.469965-57.527501-22.919987-96.872141-31.397069-39.302758-8.47401-86.378803-12.688998-141.226086-12.688998-55.506432 0-104.557568 3.688038-147.1104 11.066061-42.594816 7.289037-78.296371 16.685056-107.147571 28.103066-28.851302 11.415962-50.676224 24.240128-65.430835 38.642074-14.842675 14.313984-22.219981 28.103066-22.219981 41.36407L323.542835 371.794004C323.543757 443.151155 323.892736 521.884365 324.64087 607.951565L324.64087 607.951565zM271.63648 596.885504 77.892143 596.885504l84.40064-251.569562-84.40064-251.569562 193.744361 0L271.636504 596.885552 271.63648 596.885504zM271.63648 596.885504"  horiz-adv-x="1024" />

    
    <glyph glyph-name="jinkoushangpin" unicode="&#58922;" d="M977.152102 401.48009c-6.324326 45.531034-85.359514 65.772032-117.280768 71.744-20.416819 3.862938-85.401498 5.620019-190.606746 4.652954-6.937293 12.120064-24.764006 43.117056-47.157965 82.105958 11.590451 10.407014 44.435866 40.306995 55.676314 54.445056 20.548813 25.859994-7.113318 38.110003-26.259149 38.065971-19.493786-0.044032-74.204979 0-82.899354 0-41.009664 70.734029-82.06336 140.897997-97.652019 165.353984-35.215462 55.454003-103.756288 29.198029-100.728115 0 2.722099-26.300006 71.440998-291.322982 85.22752-344.36096-2.942157-0.087962-5.708186-0.176026-8.650342-0.263987-80.572314-2.369946-148.543078-11.591987-203.648307-22.657024-16.861696 18.089984-72.625971 78.023987-105.644339 115.388006-40.220672 45.398938-61.910528 10.187059-59.452416-5.005005 6.981325-43.688038 34.687386-137.34103 37.016576-145.026048-15.236608-3.819008-24.810086-9.175962-24.898048-15.148032-0.085914 0-0.129946-0.044032-0.173978-0.087962 0.044032 0 0.087962-0.087962 0.173978-0.087962 0.087962-5.96992 9.66144-11.328 24.898048-15.104-2.284134-7.638938-30.035251-101.33801-37.016576-144.979968-2.458112-15.191962 19.231744-50.494054 59.452416-5.051085 33.019392 37.365043 88.783667 97.341952 105.644339 115.432038 55.105229-11.151974 123.075994-20.371968 203.648307-22.744986 2.942157-0.085914 5.708186-0.173978 8.650342-0.261939-13.787546-52.951962-82.505421-318.061978-85.22752-344.318976-3.02807-29.241958 65.512653-55.409971 100.728115 0 15.587635 24.410931 56.642355 94.576026 97.652019 165.353984 8.694374 0 63.40567 0 82.899354 0 19.14583-0.044032 46.807962 12.205978 26.259149 38.110003-11.240448 14.137958-44.085862 43.996058-55.676314 54.445056 22.393958 38.901965 40.220672 69.901005 47.157965 82.017997 105.20535-0.965018 170.189926 0.876954 190.606746 4.652954C891.792589 334.12608 972.408934 359.065088 977.152102 401.48009"  horiz-adv-x="1024" />

    
    <glyph glyph-name="liangyoufushi" unicode="&#58923;" d="M606.440243 835.692442c0 0-28.452147 15.804928-77.275034 14.575923-48.824934 1.229005-77.233152-14.575923-77.233152-14.575923l0-59.271942 154.507147 0L606.439205 835.692473zM818.24768 30.208205c0 0 0 504.910541 0 532.569498 0 27.661005-17.474662 36.880998-17.474662 36.880998L607.187251 753.852518 451.187026 753.852518l-193.58679-154.193818c0 0-17.518694-9.219994-17.518694-36.880998 0-27.658957 0-532.569498 0-532.569498s-6.761267-79.115878 79.471206-79.115878l132.37929 0c78.550118 0 154.507162 0 154.507162 0l132.37929 0C825.008947-48.908698 818.24768 30.208205 818.24768 30.208205zM738.77545 221.546086c0-8.691917-7.287296-15.804928-16.245658-15.804928L604.202131 205.741158c-8.956314 0-16.201626 7.113011-16.201626 15.804928L588.000506 482.695836c0 8.779981 7.245312 15.84896 16.201626 15.84896l118.328721 0c8.958362 0 16.245658-7.068979 16.245658-15.84896L738.776509 221.546048z"  horiz-adv-x="1024" />

    
    <glyph glyph-name="meirongxihu" unicode="&#58924;" d="M662.551347 567.985357l0-534.248723c0-10.187059-1.844122-20.067021-5.576192-29.681971-3.733197-9.571021-9.353421-18.352947-16.817664-26.432-7.463322-8.078029-16.509645-14.574899-27.134054-19.316941-10.626458-4.832051-23.09591-7.203021-37.499597-7.203021l-98.263934 0c-29.244211 0-50.669056 8.693965-64.193638 26.079949-13.479526 17.300992-20.196762 37.672038-20.196762 61.02999L392.869506 567.985338 662.551395 567.985338 662.551347 567.985357zM608.28119 626.380288 446.261651 626.380288l0 95.188966c0 10.185011 0.570982 18.263962 1.755034 24.237056 1.141043 5.96992 3.162112 11.061965 6.015283 15.276954 2.856141 4.217037 6.630298 8.253952 11.196416 12.11904 4.567245 3.861914 10.056397 8.826061 16.378675 14.841037 18.396774 17.29792 33.150362 30.380954 44.389786 39.032013 11.196416 8.651059 21.383885 14.534042 30.559232 17.519002 13.261619 4.784947 23.446938 6.585958 30.603264 5.356032 7.202304-1.140941 12.338483-4.477952 15.500698-9.835008 3.160064-5.445018 4.917146-12.294042 5.180211-20.635955 0.306995-8.429978 0.438989-17.123021 0.438989-26.079949L608.279239 626.380306 608.28119 626.380288zM608.28119 626.380288"  horiz-adv-x="1024" />

    
    <glyph glyph-name="muyingchanpin" unicode="&#58925;" d="M798.675149 416.460288c10.235494-10.233037 15.329792-22.970163 15.329792-38.256333 0-15.284122-5.095219-28.373197-15.329792-39.177318l-371.773133-372.636979c-11.37449-10.189107-24.728166-15.28617-40.01495-15.28617-15.328768 0-28.066304 5.096038-38.257869 15.28617L93.86967 221.138739c-10.805555 10.805043-16.20777 23.718195-16.20777 38.695322s5.402214 28.241203 16.20777 39.573299l372.652237 371.759002c10.805555 10.805043 23.719117 16.251085 38.74089 16.251085 14.978765 0 27.890381-5.446042 38.696858-16.251085L798.675149 416.460288zM524.149658 534.392218c5.402214 5.35808 8.082432 11.990118 8.082432 19.764122 0 7.819059-2.680115 14.142054-8.082432 18.9312-5.402214 5.40201-11.858534 8.124006-19.325952 8.124006-7.555379 0-13.966643-2.721997-19.413914-8.124006L211.762483 299.40736c-5.358285-5.35808-8.082432-11.946086-8.082432-19.764122s2.724147-14.406144 8.082432-19.808154c5.446246-5.40201 11.858534-8.126054 19.413914-8.126054 7.467418 0 13.924659 2.724045 19.328 8.126054L524.149658 534.392218zM885.997363 485.76983c8.432435-8.387994 12.649574-18.315162 12.649574-29.734195 0-11.376128-4.217242-21.259162-12.649574-29.692211-7.775437-8.346112-17.394893-12.561101-28.813414-12.561101-11.376538 0-21.260083 4.214989-29.69344 12.561101L553.8432 699.978547c-8.388403 8.434074-12.561613 18.359091-12.561613 29.692211 0 11.420058 4.17321 21.347226 12.561613 29.736243 7.819366 8.387994 17.394893 12.605133 28.813414 12.605133 11.42057 0 21.304013-4.217037 29.69344-12.605133L885.997363 485.76983zM965.236326 778.337178c-8.434483-7.819059-18.185933-11.684147-29.255475-11.684147-11.110502 0-20.862976 3.864986-29.253427 11.684147 11.42057-12.036096 19.766989-25.562214 25.214259-40.496333 5.358285-15.022182 7.467418-30.921216 6.280294-47.743386-1.185075-16.82217-5.402214-33.425306-12.605645-49.940378s-17.128755-31.974195-29.69344-46.382387l0-0.876973c5.974323-5.40201 9.004442-11.86007 9.004442-19.369165 0-7.51104-3.030118-13.924147-9.004442-19.371213-5.402214-5.35808-12.03456-8.082022-19.808973-8.082022s-14.406656 2.724045-19.808973 8.082022L680.78336 729.669734c-4.83328 5.446042-7.203328 12.036096-7.203328 19.852186 0 7.819059 2.722099 14.408192 8.080384 19.76617 4.83328 6.016 11.11255 9.048064 18.931917 9.048064 7.775437 0 14.362726-3.032064 19.808973-9.048064l0-0.87902c14.406656 13.177139 29.956506 23.410176 46.824346 30.569267 16.77783 7.203021 33.556582 11.288064 50.379469 12.212122 16.822784 0.876954 32.85463-1.231053 48.185344-6.326067 15.284736-5.095014 28.901376-13.353165 40.935936-24.771174-8.432435 8.432026-12.605645 18.184192-12.605645 29.252198 0 11.15607 4.17321 20.556186 12.605645 28.373197 8.390451 8.434074 18.142925 12.605133 29.253427 12.605133 11.068518 0 20.820992-4.170957 29.255475-12.605133 7.817318-8.432026 11.858534-18.27113 12.122624-29.692211C977.710899 796.608307 973.625651 786.681242 965.236326 778.337178L965.236326 778.337178zM965.236326 778.337178"  horiz-adv-x="1024" />

    
    <glyph glyph-name="shengxianshuiguo" unicode="&#58926;" d="M975.801344 407.771443c0 18.441011-9.660416 40.220058-19.93687 54.887117-79.699354 114.255258-219.823411 146.309222-304.132915 152.631194-23.230976 26.611098-130.506547 110.127206-130.506547 110.127206-56.734413 43.911066-56.427418 0-56.427418 0s0-47.862067 0-137.263206C312.113971 506.832589 312.113971 463.713485 277.817549 441.406464c-34.295501-22.309069-70.127002 36.707021-126.202368 86.152192-56.07639 49.442099-77.901312 33.504051-74.782208 0 2.371072-25.337037 26.961101-80.797184 38.818714-106.440192 2.195046-6.936986 3.512115-18.527949-3.426202-34.292019-12.646502-27.709133-33.284403-75.922125-35.392512-99.019162-3.118182-33.458995 18.705818-49.442099 74.782208 0 56.074342 49.532109 91.906867 108.460237 126.202368 86.151168 34.295501-22.307021 34.295501-65.426125 186.977997-146.746163 0-89.315226 0-137.177293 0-137.177293s-0.306995-43.998106 56.427418 0c0 0 107.275571 83.473101 130.506547 110.039142 84.31063 6.366003 224.47657 38.376038 304.132915 152.632218 10.276454 14.753997 19.93687 36.445082 19.93687 54.974054l0 0 0 0L975.799296 407.771403 975.801344 407.771443zM820.571648 359.732326c-25.86409 0-46.855066 21.517107-46.855066 47.949107 0 26.524058 20.990874 47.952179 46.855066 47.952179 25.863066 0 46.854042-21.428019 46.854042-47.952179C867.42569 381.249331 846.43584 359.732326 820.571648 359.732326z"  horiz-adv-x="1024" />

    
    <glyph glyph-name="shipinyinliao" unicode="&#58927;" d="M842.259558 546.923622c0 2.283008-0.570982 4.48-1.536 6.411059l0 3.687996-2.591117 0c-3.030118 3.16201-7.509299 5.182054-12.470477 5.182054l-51.242111 0c-6.059213 19.407053-28.717158 86.848-54.183219 101.249024-25.291059 14.270054-126.458163 8.517018-126.458163 8.517018l0 58.836013c0 19.584 4.830208 33.89911 14.445568 42.766029 9.616384 8.86999 25.732096 13.349069 48.300032 13.349069l126.238178 0c0-0.088986 0-0.088986 0-0.176026 0.045056 0.086938 0.088986 0.086938 0.088986 0.176026l0.088008 0 0 0.172939c21.77792 33.37001 2.107085 60.330086 0 63.053107l0 0.176009L650.509657 850.323939c-17.915802 0-34.117427-3.250995-51.286118-10.540032-15.982694-6.804992-33.020416-18.701926-43.644723-30.996992-10.626458-12.205978-15.28064-19.67104-19.539763-33.720013-4.435149-14.841037-6.981325-32.581018-6.981325-42.413978l0-60.682058c0 0-169.664 3.250995-195.703091-15.805952-23.094886-16.948019-51.506176-75.957965-59.803443-93.959987l-44.172822 0c-9.176371 0-16.597709-6.850048-16.597709-15.28105l0-98.264001c0-8.429978 7.420314-15.323034 16.597709-15.323034l58.618404 0 52.867174-452.024013c0 0 183.627571-67.970048 379.373568 0l0 0.041956 50.891059 451.982029 54.534222 0c6.191206 0 11.591475 3.116954 14.445568 7.771034l0.616056 0 0 1.140986c0.965018 1.931981 1.536 4.128051 1.536 6.411059L842.260422 546.92365z"  horiz-adv-x="1024" />

    
    <glyph glyph-name="man88yuanbaoyou" unicode="&#58928;" d="M527.519539 848.601498c-247.370854 0-447.905178-200.525005-447.905178-447.888794 0-247.362765 200.534323-447.88777 447.905178-447.88777 247.372902 0 447.907226 200.523981 447.907226 447.88777C975.426765 648.076493 774.890496 848.601498 527.519539 848.601498zM527.519539 5.696c-218.167603 0-395.030835 176.855962-395.030835 395.017728 0 218.16279 176.862208 395.017728 395.030835 395.017728 218.170675 0 395.033907-176.85289 395.033907-395.017728C922.552422 182.552986 745.690214 5.696 527.519539 5.696zM454.766694 417.575731c16.131072 6.385459 28.397875 15.397683 36.481331 26.802483 8.401715 11.859046 12.661862 25.982771 12.661862 41.983181 0 25.065882-9.295053 46.633062-27.623219 64.104038-18.322022 17.458586-42.836378 26.309222-72.859341 26.309222-29.869466 0-54.146355-8.655155-72.155238-25.725952-18.020147-17.076941-27.157606-38.44864-27.157606-63.513498 0-16.627712 4.300083-31.10953 12.779622-43.04128 8.129434-11.44361 20.600013-20.474266 37.080986-26.857677-19.934822-5.624115-35.587994-15.865344-46.55104-30.459699-11.363226-15.121408-17.124659-34.136474-17.124659-56.517222 0-30.039142 10.55273-55.466291 31.366656-75.569152 20.800614-20.103885 48.545587-30.296986 82.463437-30.296986 33.91273 0 61.655654 10.154291 82.460365 30.176256 20.813926 20.032205 31.368704 45.103206 31.368704 74.518221 0 21.28681-5.601792 39.86391-16.648806 55.217562C490.606387 399.587021 474.955264 410.636698 454.766694 417.575731zM348.668006 488.940032c0 14.090957 5.282509 26.36032 15.699149 36.46761 10.422784 10.116403 23.723213 15.244186 39.528858 15.244186 15.647027 0 28.905472-5.246464 39.407104-15.593165 10.497536-10.342605 15.819981-23.286374 15.819981-38.460928 0-14.55657-5.164851-27.024486-15.351296-37.053952-10.190541-10.037658-23.45001-15.125504-39.407104-15.125504-16.428851 0-29.964698 5.126758-40.228864 15.242138C353.873818 459.768627 348.668006 472.985702 348.668006 488.940032zM453.95415 280.139571c-12.904448-12.755558-29.510246-19.221811-49.355059-19.221811-12.77655 0-24.869376 3.080192-35.940966 9.156506-11.054182 6.063104-19.500954 14.741709-25.102746 25.794458-5.618176 11.080397-8.466125 22.705152-8.466125 34.556006 0 19.377357 6.505472 35.745075 19.33824 48.651059 12.826624 12.908032 29.233971 19.450982 48.765645 19.450982 19.99319 0 36.875366-6.622822 50.176819-19.688448 13.295309-13.065523 20.034048-29.826355 20.034048-49.818624C473.403904 309.33545 466.860646 292.891955 453.95415 280.139571zM702.282854 417.575731c16.13312 6.385459 28.399923 15.397683 36.481331 26.802483 8.400691 11.859046 12.660838 25.982771 12.660838 41.983181 0 25.065882-9.293005 46.633062-27.622195 64.104038-18.322022 17.458586-42.836378 26.309222-72.857293 26.309222-29.873562 0-54.149427-8.655155-72.156262-25.725952-18.020147-17.076941-27.15863-38.44864-27.15863-63.513498 0-16.627712 4.301107-31.10953 12.780544-43.04128 8.12841-11.44361 20.600013-20.474266 37.08201-26.857677-19.935846-5.624115-35.589018-15.865344-46.554112-30.459699-11.362202-15.121408-17.123635-34.136474-17.123635-56.517222 0-30.039142 10.553754-55.466291 31.366656-75.569152 20.802662-20.103885 48.546611-30.296986 82.463437-30.296986 33.911706 0 61.656678 10.154291 82.462413 30.176256 20.812902 20.032205 31.366656 45.103206 31.366656 74.518221 0 21.28681-5.601792 39.86391-16.646758 55.217562C738.124595 399.587021 722.47255 410.636698 702.282854 417.575731zM596.184166 488.940032c0 14.090957 5.280461 26.36032 15.699149 36.46761 10.42176 10.116403 23.723213 15.244186 39.528858 15.244186 15.646003 0 28.905472-5.246464 39.405056-15.593165 10.499584-10.342605 15.819981-23.286374 15.819981-38.460928 0-14.55657-5.162803-27.024486-15.350272-37.053952-10.189517-10.037658-23.448986-15.125504-39.407104-15.125504-16.428851 0-29.963674 5.126758-40.22784 15.242138C601.388954 459.768627 596.184166 472.985702 596.184166 488.940032zM701.472358 280.139571c-12.905472-12.755558-29.512294-19.221811-49.358131-19.221811-12.774502 0-24.868352 3.080192-35.940966 9.156506-11.052134 6.063104-19.498906 14.741709-25.100698 25.794458-5.620224 11.080397-8.466125 22.705152-8.466125 34.556006 0 19.377357 6.505472 35.745075 19.339264 48.651059 12.824576 12.908032 29.231923 19.450982 48.763597 19.450982 19.995238 0 36.87639-6.622822 50.177843-19.688448 13.293261-13.065523 20.033024-29.826355 20.033024-49.818624C720.920064 309.33545 714.376806 292.891955 701.472358 280.139571z"  horiz-adv-x="1024" />

    
    <glyph glyph-name="wodezichan" unicode="&#58929;" d="M511.5709 805.9464c-233.1771 0-422.2065-189.0284-422.2065-422.2065 0-233.1781 189.0284-422.2065 422.2065-422.2065 233.1791 0 422.2075 189.0284 422.2075 422.2065C933.7774 616.918 744.7491 805.9464 511.5709 805.9464zM679.2376 411.8129l0-57.428992L568.986624 354.383908l0-83.2 110.592 0 0-55.04-111.104 0 0-111.616-111.616 0 0 111.36-113.92 0 0 55.552 113.92 0 0 83.2-114.176 0 0 56.576 113.664 0-136.192 227.925 73.044992 0 120.4193-196.267 118.5137 196.267 70.313984 0-134.144-227.328L679.237632 411.812908z"  horiz-adv-x="1024" />

    
    <glyph glyph-name="kanguo" unicode="&#58930;" d="M511.1306 694.0959c-212.48 0-421.888-239.488-421.888-323.584 0-83.84 218.624-323.584 421.888-323.584s421.1476 235.648 421.888 323.584C933.7016 451.6639 725.6586 694.0959 511.1306 694.0959zM511.1296 161.6159c-39.423 0-107.007 122.88-107.007 209.408 0 82.432 63.488 209.408 107.007 209.408 43.521 0 108.033-126.976 108.033-209.408C619.1626 285.5199 550.5546 161.6159 511.1296 161.6159z"  horiz-adv-x="1024" />

    
    <glyph glyph-name="gouwurili" unicode="&#58931;" d="M146.2446 665.2529c0 0 3.2113 56.149 56.491 56.149 27.989 0 27.989 0 27.989 0l0-97.620992c0 0 0.683-42.837 42.24-42.923s84.053 0 84.053 0 42.496-0.939 42.496 42.837 0 97.707 0 97.707l225.024 0 0-98.731008c0 0-2.048-41.9738 42.752-41.8509s84.736 0 84.736 0 40.832 0.4649 40.96 42.3629 0 98.219 0 98.219l27.648 0c0 0 56.832 3.883 56.832-56.32s0-338.347 0-338.347l-85.248-83.2-83.456 82.688-197.12-195.328 112.64-112.128L202.87488 18.7669c0 0-56.5443 0.512-56.5443 56.32S146.2446 665.2529 146.2446 665.2529zM792.2196-65.7132 596.1226 131.4079 708.7626 243.5359 793.2426 160.0799 877.4666 243.5359 989.8506 131.4079ZM286.3626 777.5519l56.32 0 0-140.288-56.32 0 0 140.288ZM680.0906 777.5519l56.832 0 0-140.288-56.832 0 0 140.288Z"  horiz-adv-x="1024" />

    
    <glyph glyph-name="woguanzhudepinpai" unicode="&#58932;" d="M512.0266-10.0321c0 0-423.7476 234.24-423.552 522.368 0.128 188.032 194.816 210.432 194.816 210.432 31.616-0.896 135.168-6.144 229.035-125.696 0 0 74.069 123.6572 210.261 125.7001s209.3507-118.698 209.92-208.9001C933.2746 392.1439 824.9866 145.2319 512.0266-10.0321z"  horiz-adv-x="1024" />

    
    <glyph glyph-name="zhibojian" unicode="&#58933;" d="M89.4126 550.3939l97.963 0 0-221.525-97.963 0 0 221.525ZM244.3786 579.9199c0 0 340.993 12.459 519.852 225.451 0 0 152.9876 36.5773 141.312-364.544 0 0 16.2836-276.2209-139.8682-315.1309 0 0-117.2419 152.0558-521.1894 170.4868L244.3786 579.9199zM307.8666 229.1999c0 0 14.336-130.048 119.808-266.24 0 0 91.648-4.096 105.472 33.792 0 0 9.728 25.088-19.456 57.344-9.3399 14.8285-92.4058 84.992-105.984 175.104L307.866624 229.1999z"  horiz-adv-x="1024" />

    
    <glyph glyph-name="tianmaochaoshigouwuche" unicode="&#58934;" d="M293.60128 145.57184c-30.312448 0-54.889472-24.568832-54.889472-54.889472 0-30.32064 24.577024-54.889472 54.889472-54.889472 30.319616 0 54.897664 24.567808 54.889472 54.889472C348.489728 121.003008 323.920896 145.57184 293.60128 145.57184zM629.054464 171.301888c-41.684992 0-75.474944-33.782784-75.474944-75.467776 0-41.689088 33.789952-75.474944 75.474944-75.474944s75.476992 33.785856 75.476992 75.474944C704.531456 137.519104 670.739456 171.301888 629.054464 171.301888zM964.237312 688.147456 964.237312 701.815808c0 21.330944-18.482176 38.621184-41.284608 38.621184L761.675776 740.436992c-2.086912 0-4.117504-0.191488-6.125568-0.473088-15.404032-0.864256-29.400064-10.917888-34.438144-26.399744l-46.355456-131.43552L98.932736 582.12864c-21.330944 0-38.6304-17.293312-38.6304-38.623232l0-11.948032c0-21.338112 17.299456-38.6304 38.6304-38.6304L643.290112 492.926976l-19.065856-54.055936c-0.176128 0-0.345088 0.031744-0.520192 0.031744L140.105728 438.902784c-21.338112 0-38.629376-17.301504-38.629376-38.631424l0-11.948032c0-21.330944 17.291264-38.621184 38.629376-38.621184l452.671488 0-19.539968-55.386112L206.848 294.316032c-22.194176 0-40.188928-17.298432-40.188928-38.629376l0-11.95008c0-21.328896 17.994752-38.629376 40.188928-38.629376l395.982848 0c1.103872 0 2.190336 0.080896 3.269632 0.160768 17.354752-1.337344 33.983488 9.156608 39.574528 26.345472l147.39968 417.910784 129.886208 0c22.801408 0 41.284608 17.292288 41.284608 38.623232L964.237312 688.147456z"  horiz-adv-x="1024" />

    
    </font>
</defs>
</svg>
